Поиск

2010 Mindi Abair - In Hi-Fi Stereo {Heads Up} [CD]

2010 Mindi Abair - In Hi-Fi Stereo {Heads Up} [CD]
Стили:
Издатель (лейбл):
Треклист:
01. Any Way You Wanna [4:53]
02. All Star [3:29]
03. L'Esprit Nouveau [4:25]
04. Get Right (Feat. Ryan Collins) [3:24]
05. Be Beautiful (Feat. David Ryan Harris} [3:52]
06. Down For The Count [4:09]
07. Girls' Night Out [4:04]
08. Let The Whole World Know (Sing Your Song) [4:19]
09. It's A Man's Man's Man's World (Feat. Lalah Hathaway) [6:10]
10. Take Me Home [4:41]
11. The Alley [4:51]
Лог создания рипа
Exact Audio Copy V1.0 beta 1 from 15. November 2010
EAC extraction logfile from 21. March 2011, 0:35
Mindi Abair / In Hi-Fi Stereo
Used drive  : HL-DT-STDVD-RAM GH22NS30   Adapter: 1  ID: 0
Read mode               : Secure
Utilize accurate stream : Yes
Defeat audio cache      : Yes
Make use of C2 pointers : No
Read offset correction                      : 102
Overread into Lead-In and Lead-Out          : No
Fill up missing offset samples with silence : Yes
Delete leading and trailing silent blocks   : No
Null samples used in CRC calculations       : Yes
Used interface                              : Native Win32 interface for Win NT & 2000
Gap handling                                : Appended to previous track
Used output format              : User Defined Encoder
Selected bitrate                : 768 kBit/s
Quality                         : High
Add ID3 tag                     : No
Command line compressor         : C:\MultiMedia\Exact Audio Copy\FLAC\FLAC.EXE
Additional command line options : -8 -V -T "ARTIST=%a" -T "TITLE=%t" -T "ALBUM=%g" -T "DATE=%y" -T "TRACKNUMBER=%n" -T "GENRE=%m" -T "COMMENT=Encoded by EAC 1.0b FLAC -8" %s
TOC of the extracted CD
     Track |   Start  |  Length  | Start sector | End sector
    ---------------------------------------------------------
        1  |  0:00.00 |  4:53.10 |         0    |    21984
        2  |  4:53.10 |  3:29.03 |     21985    |    37662
        3  |  8:22.13 |  4:25.45 |     37663    |    57582
        4  | 12:47.58 |  3:24.64 |     57583    |    72946
        5  | 16:12.47 |  3:52.07 |     72947    |    90353
        6  | 20:04.54 |  4:09.42 |     90354    |   109070
        7  | 24:14.21 |  4:04.45 |    109071    |   127415
        8  | 28:18.66 |  4:19.18 |    127416    |   146858
        9  | 32:38.09 |  6:10.12 |    146859    |   174620
       10  | 38:48.21 |  4:40.74 |    174621    |   195694
       11  | 43:29.20 |  4:51.12 |    195695    |   217531
Track  1
     Filename H:\Torrent\EAC\Mindi Abair - 2010 - In Hi-Fi Stereo [FLAC]\01. Any Way You Wanna.wav
     Pre-gap length  0:00:02.00
     Peak level 99.9 %
     Extraction speed 1.6 X
     Track quality 100.0 %
     Test CRC 0FA8A640
     Copy CRC 0FA8A640
     Accurately ripped (confidence 6)  [DB82B672]
     Copy OK
Track  2
     Filename H:\Torrent\EAC\Mindi Abair - 2010 - In Hi-Fi Stereo [FLAC]\02. All Star.wav
     Pre-gap length  0:00:02.04
     Peak level 98.8 %
     Extraction speed 1.7 X
     Track quality 100.0 %
     Test CRC E45594D2
     Copy CRC E45594D2
     Accurately ripped (confidence 6)  [A07CB47A]
     Copy OK
Track  3
     Filename H:\Torrent\EAC\Mindi Abair - 2010 - In Hi-Fi Stereo [FLAC]\03. L'Espirit Nouveau.wav
     Pre-gap length  0:00:01.51
     Peak level 99.9 %
     Extraction speed 1.9 X
     Track quality 100.0 %
     Test CRC 78C04B20
     Copy CRC 78C04B20
     Accurately ripped (confidence 5)  [9DD4B593]
     Copy OK
Track  4
     Filename H:\Torrent\EAC\Mindi Abair - 2010 - In Hi-Fi Stereo [FLAC]\04. Get Right (feat. Ryan Collins).wav
     Peak level 98.8 %
     Extraction speed 1.7 X
     Track quality 99.9 %
     Test CRC 7D89DA30
     Copy CRC 7D89DA30
     Accurately ripped (confidence 6)  [B3097C36]
     Copy OK
Track  5
     Filename H:\Torrent\EAC\Mindi Abair - 2010 - In Hi-Fi Stereo [FLAC]\05. Be Beautiful (feat. David Ryan Harris).wav
     Pre-gap length  0:00:01.15
     Peak level 98.8 %
     Extraction speed 1.9 X
     Track quality 99.9 %
     Test CRC FB305C03
     Copy CRC FB305C03
     Accurately ripped (confidence 6)  [73544CC4]
     Copy OK
Track  6
     Filename H:\Torrent\EAC\Mindi Abair - 2010 - In Hi-Fi Stereo [FLAC]\06. Down For The Count.wav
     Pre-gap length  0:00:01.21
     Peak level 98.8 %
     Extraction speed 2.3 X
     Track quality 100.0 %
     Test CRC 232F0D0B
     Copy CRC 232F0D0B
     Accurately ripped (confidence 6)  [568649FA]
     Copy OK
Track  7
     Filename H:\Torrent\EAC\Mindi Abair - 2010 - In Hi-Fi Stereo [FLAC]\07. Girl's Night Out.wav
     Pre-gap length  0:00:01.14
     Peak level 98.8 %
     Extraction speed 2.4 X
     Track quality 100.0 %
     Test CRC 07384881
     Copy CRC 07384881
     Accurately ripped (confidence 6)  [A3E393DD]
     Copy OK
Track  8
     Filename H:\Torrent\EAC\Mindi Abair - 2010 - In Hi-Fi Stereo [FLAC]\08. Let the Whole World Know (Sing Your Song).wav
     Peak level 98.8 %
     Extraction speed 2.5 X
     Track quality 100.0 %
     Test CRC 9B7407E5
     Copy CRC 9B7407E5
     Accurately ripped (confidence 6)  [2ECA5DF9]
     Copy OK
Track  9
     Filename H:\Torrent\EAC\Mindi Abair - 2010 - In Hi-Fi Stereo [FLAC]\09. It's A Man's Man's Man's World (feat. Lalah Hathaway).wav
     Pre-gap length  0:00:02.06
     Peak level 98.8 %
     Extraction speed 2.8 X
     Track quality 100.0 %
     Test CRC D315AF3A
     Copy CRC D315AF3A
     Accurately ripped (confidence 6)  [31FF2C6B]
     Copy OK
Track 10
     Filename H:\Torrent\EAC\Mindi Abair - 2010 - In Hi-Fi Stereo [FLAC]\10. Take Me Home.wav
     Pre-gap length  0:00:01.64
     Peak level 98.8 %
     Extraction speed 2.8 X
     Track quality 100.0 %
     Test CRC 1AA6E75F
     Copy CRC 1AA6E75F
     Accurately ripped (confidence 6)  [5DB5AE50]
     Copy OK
Track 11
     Filename H:\Torrent\EAC\Mindi Abair - 2010 - In Hi-Fi Stereo [FLAC]\11. The Alley.wav
     Pre-gap length  0:00:01.63
     Peak level 98.8 %
     Extraction speed 3.0 X
     Track quality 100.0 %
     Test CRC 62E4C3EA
     Copy CRC 62E4C3EA
     Accurately ripped (confidence 6)  [D8CF9F5E]
     Copy OK
All tracks accurately ripped
No errors occurred
End of status report
==== Log checksum D14E56185E916762D748ED7B6CAE34140D9139DBEFB3766314B5D05756EAB373 ====
00:59
541
Нет комментариев. Ваш будет первым!