Поиск

2011-2013 Almunia - Collection (5 albums)

2011-2013 Almunia - Collection (5 albums)
Треклист:
Almunia — замечательный итальянский дуэт, состоящий из Leonardo Ceccanti и Gianluca Salvadori. «New Moon» — их дебютный альбом выпущенный Claremont 56 сразу после очень успешного 12" релиза. Гипнотичный лонгплей наполнен неяркими миражами фанк-балеарики, интроспективным пинкфлойдовским грувом и романтичным даб-диско - нежный пейотный фьюжн и инструментальное софт-рок-эхо словно идеальный саундтрек для несмелых бликов бабьего лета, а гитарные пассажи растворяются в воздухе и опьяняют воображение. Одно мгновение — и вы уже по ту сторону стены, сидите на пляже с бутылкой прохладного пива и наблюдаете за целующими горные массивы приливами...

Жанр: Space Age / Balearic / Nu Disco
Носитель: WEB, CD
Год издания: 2011-2013
Страна исполнителя (группы): Italy
Аудиокодек: FLAC (*.flac)
Тип рипа: tracks, tracks+.cue
Битрейт аудио: lossless
Наличие сканов в содержимом раздачи: нет
 
2011 - New Moon (Single) [13:31] {WEB}
Tracklist:
01. New Moon (6:38)
02. Travel (Instrumental) (6:53)
 
 
Лог проверки качества
-----------------------
DON'T MODIFY THIS FILE
-----------------------
PERFORMER: auCDtect Task Manager, ver. 1.6.0 RC1 build 1.6.0.1
Copyright (c) 2008-2010 y-soft. All rights reserved
http://y-soft.org
ANALYZER: auCDtect: CD records authenticity detector, version 0.8.2
Copyright (c) 2004 Oleg Berngardt. All rights reserved.
Copyright (c) 2004 Alexander Djourik. All rights reserved.
FILE: 02 Travel (Instrumental).flac
  Size: 31921409 Hash: F92A7A97D6548A52DB16112125E84203 Accuracy: -m0
  Conclusion: CDDA 100%
  Signature: 57A29FD00DD246FAAC6052E23A711624E7224AC2
FILE: 01 New Moon.flac
  Size: 38908992 Hash: 45EC41F6D7189DA1570EB0AF413517C3 Accuracy: -m0
  Conclusion: CDDA 100%
  Signature: A5F982DA05D66CF5EBC08BB7118ED36F99E8F35A
 
 
Лог DRM
foobar2000 1.3.9 / Dynamic Range Meter 1.1.1
log date: 2018-03-18 22:44:16
--------------------------------------------------------------------------------
Analyzed: Almunia / New Moon
--------------------------------------------------------------------------------
DR         Peak         RMS     Duration Track
--------------------------------------------------------------------------------
DR7       -0.25 dB    -8.57 dB      6:38 01-New Moon
DR8       -0.26 dB   -10.39 dB      6:53 02-Travel (Instrumental)
--------------------------------------------------------------------------------
Number of tracks:  2
Official DR value: DR8
Samplerate:        44100 Hz
Channels:          2
Bits per sample:   16
Bitrate:           618 kbps
Codec:             FLAC
================================================================================
Источник - https://almunia.bandcamp.com/album/new-moon-2
 
 
2011 - New Moon [47:49] {CD}
Tracklist:
01. L & G Psychedelic (5:54)
02. New Moon (6:39)
03. Dos Estrellas (6:29)
04. Electric Blues (4:49)
05. Kissing Time (5:52)
06. Moving Up Slowly (6:01)
07. Travel (6:53)
08. Until She Comes (5:12)
 
 
Лог создания рипа
X Lossless Decoder version 20131102 (145.0)
XLD extraction logfile from 2013-12-07 10:07:12 -0500
Almunia / New Moon
Used drive : MATSHITA DVD-R   UJ-857E (revision ZF1E)
Media type : Pressed CD
Ripper mode             : XLD Secure Ripper
Disable audio cache     : OK for the drive with a cache less than 1375KiB
Make use of C2 pointers : NO
Read offset correction  : 102
Max retry count         : 100
Gap status              : Analyzed, Appended
TOC of the extracted CD
     Track |   Start  |  Length  | Start sector | End sector
    ---------------------------------------------------------
        1  | 00:00:00 | 05:54:25 |         0    |    26574
        2  | 05:54:25 | 06:38:50 |     26575    |    56474
        3  | 12:33:00 | 06:29:01 |     56475    |    85650
        4  | 19:02:01 | 04:49:15 |     85651    |   107340
        5  | 23:51:16 | 05:51:60 |    107341    |   133725
        6  | 29:43:01 | 06:00:52 |    133726    |   160777
        7  | 35:43:53 | 06:53:22 |    160778    |   191774
        8  | 42:37:00 | 05:12:24 |    191775    |   215198
AccurateRip Summary (DiscID: 000eea70-00633146-6c0b3508)
    Track 01 : OK (v2, confidence 2/2)
    Track 02 : OK (v2, confidence 2/2)
    Track 03 : OK (v2, confidence 2/2)
    Track 04 : OK (v2, confidence 2/2)
    Track 05 : OK (v2, confidence 2/2)
    Track 06 : OK (v2, confidence 2/2)
    Track 07 : OK (v2, confidence 2/2)
    Track 08 : OK (v2, confidence 2/2)
        ->All tracks accurately ripped.
All Tracks
    Album gain               : -5.62 dB
    Peak                     : 0.970428
    Statistics
        Read error                           : 0
        Jitter error (maybe fixed)           : 0
        Retry sector count                   : 0
        Damaged sector count                 : 0
Track 01
    Filename : /Almunia - New Moon (2011) [FLAC]/01 - L & G Psychedelic.flac
               /Almunia - New Moon (2011) [FLAC]/01 - L & G Psychedelic(LAME MP3 (VBR-new quality 0.0)).mp3
               /Almunia - New Moon (2011) [FLAC]/01 - L & G Psychedelic(LAME MP3 (CBR 320kbps)).mp3
    Pre-gap length : 00:02:00
    Track gain               : -5.55 dB
    Peak                     : 0.970428
    CRC32 hash (test run)    : C1AC8FBB
    CRC32 hash               : C1AC8FBB
    CRC32 hash (skip zero)   : 777C769A
    AccurateRip v1 signature : BE593151
    AccurateRip v2 signature : E5B0A97B
        ->Accurately ripped (v2, confidence 2/2)
    Statistics
        Read error                           : 0
        Jitter error (maybe fixed)           : 0
        Retry sector count                   : 0
        Damaged sector count                 : 0
Track 02
    Filename : /Almunia - New Moon (2011) [FLAC]/02 - New Moon.flac
               /Almunia - New Moon (2011) [FLAC]/02 - New Moon(LAME MP3 (VBR-new quality 0.0)).mp3
               /Almunia - New Moon (2011) [FLAC]/02 - New Moon(LAME MP3 (CBR 320kbps)).mp3
    Pre-gap length : 00:00:37
    Track gain               : -5.74 dB
    Peak                     : 0.970428
    CRC32 hash (test run)    : 0D295D5F
    CRC32 hash               : 0D295D5F
    CRC32 hash (skip zero)   : E9CF8B92
    AccurateRip v1 signature : E4D0A3C9
    AccurateRip v2 signature : 25840D27
        ->Accurately ripped (v2, confidence 2/2)
    Statistics
        Read error                           : 0
        Jitter error (maybe fixed)           : 0
        Retry sector count                   : 0
        Damaged sector count                 : 0
Track 03
    Filename : /Almunia - New Moon (2011) [FLAC]/03 - Dos Estrellas.flac
               /Almunia - New Moon (2011) [FLAC]/03 - Dos Estrellas(LAME MP3 (VBR-new quality 0.0)).mp3
               /Almunia - New Moon (2011) [FLAC]/03 - Dos Estrellas(LAME MP3 (CBR 320kbps)).mp3
    Pre-gap length : 00:00:37
    Track gain               : -6.07 dB
    Peak                     : 0.970428
    CRC32 hash (test run)    : 5A6898E3
    CRC32 hash               : 5A6898E3
    CRC32 hash (skip zero)   : 8B455FF8
    AccurateRip v1 signature : E637F372
    AccurateRip v2 signature : B15EC040
        ->Accurately ripped (v2, confidence 2/2)
    Statistics
        Read error                           : 0
        Jitter error (maybe fixed)           : 0
        Retry sector count                   : 0
        Damaged sector count                 : 0
Track 04
    Filename : /Almunia - New Moon (2011) [FLAC]/04 - Electric Blues.flac
               /Almunia - New Moon (2011) [FLAC]/04 - Electric Blues(LAME MP3 (VBR-new quality 0.0)).mp3
               /Almunia - New Moon (2011) [FLAC]/04 - Electric Blues(LAME MP3 (CBR 320kbps)).mp3
    Track gain               : -6.02 dB
    Peak                     : 0.970428
    CRC32 hash (test run)    : 53F57274
    CRC32 hash               : 53F57274
    CRC32 hash (skip zero)   : C2825E5D
    AccurateRip v1 signature : 517B4441
    AccurateRip v2 signature : 89ABFFD8
        ->Accurately ripped (v2, confidence 2/2)
    Statistics
        Read error                           : 0
        Jitter error (maybe fixed)           : 0
        Retry sector count                   : 0
        Damaged sector count                 : 0
Track 05
    Filename : /Almunia - New Moon (2011) [FLAC]/05 - Kissing Time.flac
               /Almunia - New Moon (2011) [FLAC]/05 - Kissing Time(LAME MP3 (VBR-new quality 0.0)).mp3
               /Almunia - New Moon (2011) [FLAC]/05 - Kissing Time(LAME MP3 (CBR 320kbps)).mp3
    Pre-gap length : 00:01:00
    Track gain               : -4.18 dB
    Peak                     : 0.970428
    CRC32 hash (test run)    : 791652CD
    CRC32 hash               : 791652CD
    CRC32 hash (skip zero)   : ADCEC382
    AccurateRip v1 signature : 700C3C94
    AccurateRip v2 signature : 43067A4E
        ->Accurately ripped (v2, confidence 2/2)
    Statistics
        Read error                           : 0
        Jitter error (maybe fixed)           : 0
        Retry sector count                   : 0
        Damaged sector count                 : 0
Track 06
    Filename : /Almunia - New Moon (2011) [FLAC]/06 - Moving Up Slowly.flac
               /Almunia - New Moon (2011) [FLAC]/06 - Moving Up Slowly(LAME MP3 (VBR-new quality 0.0)).mp3
               /Almunia - New Moon (2011) [FLAC]/06 - Moving Up Slowly(LAME MP3 (CBR 320kbps)).mp3
    Pre-gap length : 00:00:37
    Track gain               : -6.76 dB
    Peak                     : 0.970428
    CRC32 hash (test run)    : 67F2E356
    CRC32 hash               : 67F2E356
    CRC32 hash (skip zero)   : 6C6C426E
    AccurateRip v1 signature : 5524C03A
    AccurateRip v2 signature : F40D7741
        ->Accurately ripped (v2, confidence 2/2)
    Statistics
        Read error                           : 0
        Jitter error (maybe fixed)           : 0
        Retry sector count                   : 0
        Damaged sector count                 : 0
Track 07
    Filename : /Almunia - New Moon (2011) [FLAC]/07 - Travel.flac
               /Almunia - New Moon (2011) [FLAC]/07 - Travel(LAME MP3 (VBR-new quality 0.0)).mp3
               /Almunia - New Moon (2011) [FLAC]/07 - Travel(LAME MP3 (CBR 320kbps)).mp3
    Pre-gap length : 00:00:37
    Track gain               : -4.66 dB
    Peak                     : 0.970428
    CRC32 hash (test run)    : 73BC9E6E
    CRC32 hash               : 73BC9E6E
    CRC32 hash (skip zero)   : 737B5C30
    AccurateRip v1 signature : 894932FB
    AccurateRip v2 signature : EF24C5C0
        ->Accurately ripped (v2, confidence 2/2)
    Statistics
        Read error                           : 0
        Jitter error (maybe fixed)           : 0
        Retry sector count                   : 0
        Damaged sector count                 : 0
Track 08
    Filename : /Almunia - New Moon (2011) [FLAC]/08 - Until She Comes.flac
               /Almunia - New Moon (2011) [FLAC]/08 - Until She Comes(LAME MP3 (VBR-new quality 0.0)).mp3
               /Almunia - New Moon (2011) [FLAC]/08 - Until She Comes(LAME MP3 (CBR 320kbps)).mp3
    Pre-gap length : 00:00:37
    Track gain               : -3.33 dB
    Peak                     : 0.970428
    CRC32 hash (test run)    : 003CF306
    CRC32 hash               : 003CF306
    CRC32 hash (skip zero)   : A0782478
    AccurateRip v1 signature : A2294B84
    AccurateRip v2 signature : 6133B368
        ->Accurately ripped (v2, confidence 2/2)
    Statistics
        Read error                           : 0
        Jitter error (maybe fixed)           : 0
        Retry sector count                   : 0
        Damaged sector count                 : 0
No errors occurred
End of status report
-----BEGIN XLD SIGNATURE-----
YqRfAlbd2.i6Z1F8ymMXBfn1fTqPnJXRX8IRwX0o5l5d8ueei2cGxbEr5XkBI3.HdEI9M4iMTww1OPxqtg1TptoGaPLuXmpzIIhLTwK
-----END XLD SIGNATURE-----
 
 
Содержание индексной карты (.CUE)
TITLE "New Moon"
PERFORMER "Almunia"
CATALOG 5050580555419
REM GENRE "Psychedelic"
REM DATE "2011"
REM DISCID 6C0B3508
FILE "01 - L & G Psychedelic.wav" WAVE
  TRACK 01 AUDIO
    TITLE "L & G Psychedelic"
    ISRC GBSWL1000058
    INDEX 01 00:00:00
  TRACK 02 AUDIO
    TITLE "New Moon"
    ISRC GBSWL1000046
    INDEX 00 05:53:63
FILE "02 - New Moon.wav" WAVE
    INDEX 01 00:00:00
  TRACK 03 AUDIO
    TITLE "Dos Estrellas"
    ISRC GBSWL1000059
    INDEX 00 06:38:13
FILE "03 - Dos Estrellas.wav" WAVE
    INDEX 01 00:00:00
FILE "04 - Electric Blues.wav" WAVE
  TRACK 04 AUDIO
    TITLE "Electric Blues"
    ISRC GBSWL1000060
    INDEX 01 00:00:00
  TRACK 05 AUDIO
    TITLE "Kissing Time"
    ISRC GBSWL1000061
    INDEX 00 04:48:15
FILE "05 - Kissing Time.wav" WAVE
    INDEX 01 00:00:00
  TRACK 06 AUDIO
    TITLE "Moving Up Slowly"
    ISRC GBSWL1000062
    INDEX 00 05:51:23
FILE "06 - Moving Up Slowly.wav" WAVE
    INDEX 01 00:00:00
  TRACK 07 AUDIO
    TITLE "Travel"
    ISRC GBSWL1000063
    INDEX 00 06:00:15
FILE "07 - Travel.wav" WAVE
    INDEX 01 00:00:00
  TRACK 08 AUDIO
    TITLE "Until She Comes"
    ISRC GBSWL1000064
    INDEX 00 06:52:60
FILE "08 - Until She Comes.wav" WAVE
    INDEX 01 00:00:00
 
 
Лог проверки качества
-----------------------
DON'T MODIFY THIS FILE
-----------------------
PERFORMER: auCDtect Task Manager, ver. 1.6.0 RC1 build 1.6.0.1
Copyright (c) 2008-2010 y-soft. All rights reserved
http://y-soft.org
ANALYZER: auCDtect: CD records authenticity detector, version 0.8.2
Copyright (c) 2004 Oleg Berngardt. All rights reserved.
Copyright (c) 2004 Alexander Djourik. All rights reserved.
FILE: 08 - Until She Comes.flac
  Size: 33233876 Hash: 0F808BFFF8452D4FA0CAA72DF990A521 Accuracy: -m0
  Conclusion: CDDA 100%
  Signature: 34C6C26BEB9902B7F8E4C90E75D35A34D8DCCC13
FILE: 07 - Travel.flac
  Size: 33901989 Hash: 7E00C56B08561F7F720726CED94DEA25 Accuracy: -m0
  Conclusion: CDDA 100%
  Signature: 88647C768A6C6B2AAE299D22A82F40D0239A391D
FILE: 06 - Moving Up Slowly.flac
  Size: 34854824 Hash: ADAEA5E85593B6AA56F7EF08B5021812 Accuracy: -m0
  Conclusion: CDDA 100%
  Signature: 3DCA7BC0913D7A31790674C9FEF4CF7512AA195D
FILE: 05 - Kissing Time.flac
  Size: 36661036 Hash: C8CB0A8E4A23DA4BAC1DE9524208D175 Accuracy: -m0
  Conclusion: MPEG 95%
  Signature: 254CBA6A11F1D1468CDFAD371EC451CA23C3D141
FILE: 04 - Electric Blues.flac
  Size: 27354909 Hash: 7578C1ED31B0AA6FBD0C6D98DC6E9E02 Accuracy: -m0
  Conclusion: CDDA 100%
  Signature: EAB342E4CA9B3C260451F714FEF84BB3F7D176C9
FILE: 03 - Dos Estrellas.flac
  Size: 34825195 Hash: DFBD28CEB058C27EF9469AC5C127A89D Accuracy: -m0
  Conclusion: CDDA 100%
  Signature: 1EBA1807961DF8C4CBBF6387574A78ABCD176251
FILE: 02 - New Moon.flac
  Size: 38643846 Hash: 434E7118FFBA0A99768C5066A8A5C505 Accuracy: -m0
  Conclusion: CDDA 99%
  Signature: B2638CD5738B8290EC2523EB841C5A9288740F16
FILE: 01 - L & G Psychedelic.flac
  Size: 38030354 Hash: 7F28041144A4626208CC562BC782094B Accuracy: -m0
  Conclusion: CDDA 100%
  Signature: 004FBEA54C5A6379615BB8A69C9FCF913F7231C2
 
 
Скриншот спектра частот
 
 
 
Лог CUETools
[CUETools log; Date: 18.03.2018 22:56:45; Version: 2.1.5]
[CTDB TOCID: nPENWTLwMG.F_q.LOXyUj8cieSY-] found.
Track | CTDB Status
  1   | (5/5) Accurately ripped
  2   | (5/5) Accurately ripped
  3   | (5/5) Accurately ripped
  4   | (5/5) Accurately ripped
  5   | (5/5) Accurately ripped
  6   | (5/5) Accurately ripped
  7   | (5/5) Accurately ripped
  8   | (5/5) Accurately ripped
[AccurateRip ID: 000eea70-00633146-6c0b3508] found.
Track   [  CRC   |   V2   ] Status
 01     [be593151|e5b0a97b] (0+3/3) Accurately ripped
 02     [e4d0a3c9|25840d27] (0+3/3) Accurately ripped
 03     [e637f372|b15ec040] (0+3/3) Accurately ripped
 04     [517b4441|89abffd8] (0+3/3) Accurately ripped
 05     [700c3c94|43067a4e] (0+3/3) Accurately ripped
 06     [5524c03a|f40d7741] (0+3/3) Accurately ripped
 07     [894932fb|ef24c5c0] (0+3/3) Accurately ripped
 08     [a2294b84|6133b368] (0+3/3) Accurately ripped
Track Peak [ CRC32  ] [W/O NULL]
 --   97,0 [CBA25CBB] [A69A63F3]
 01   97,0 [C1AC8FBB] [777C769A]
 02   97,0 [0D295D5F] [E9CF8B92]
 03   97,0 [5A6898E3] [8B455FF8]
 04   97,0 [53F57274] [C2825E5D]
 05   97,0 [791652CD] [ADCEC382]
 06   97,0 [67F2E356] [6C6C426E]
 07   97,0 [73BC9E6E] [737B5C30]
 08   97,0 [003CF306] [A0782478]
 
 
Лог DRM
foobar2000 1.3.9 / Dynamic Range Meter 1.1.1
log date: 2018-03-18 22:44:45
--------------------------------------------------------------------------------
Analyzed: Almunia / New Moon
--------------------------------------------------------------------------------
DR         Peak         RMS     Duration Track
--------------------------------------------------------------------------------
DR7       -0.26 dB    -9.05 dB      5:54 01-L & G Psychedelic
DR7       -0.26 dB    -9.08 dB      6:39 02-New Moon
DR7       -0.26 dB    -9.31 dB      6:29 03-Dos Estrellas
DR7       -0.26 dB    -9.27 dB      4:49 04-Electric Blues
DR8       -0.26 dB   -10.59 dB      5:52 05-Kissing Time
DR7       -0.26 dB    -8.18 dB      6:01 06-Moving Up Slowly
DR8       -0.26 dB   -10.49 dB      6:53 07-Travel
DR10      -0.26 dB   -10.88 dB      5:12 08-Until She Comes
--------------------------------------------------------------------------------
Number of tracks:  8
Official DR value: DR8
Samplerate:        44100 Hz
Channels:          2
Bits per sample:   16
Bitrate:           848 kbps
Codec:             FLAC
================================================================================
Источник (релизер) - swax
 
 
2013 - Pulsar [51:21] {WEB}
Tracklist:
01. The Awakening (6:10)
02. Wrapped In Your Hair (5:29)
03. Ode To Mom (6:26)
04. Views From A Blue Train (6:00)
05. Follow What You Are (7:09)
06. The Magician (7:14)
07. Secret Marriage (6:58)
08. Pulsar (5:55)
 
 
Лог проверки качества
-----------------------
DON'T MODIFY THIS FILE
-----------------------
PERFORMER: auCDtect Task Manager, ver. 1.6.0 RC1 build 1.6.0.1
Copyright (c) 2008-2010 y-soft. All rights reserved
http://y-soft.org
ANALYZER: auCDtect: CD records authenticity detector, version 0.8.2
Copyright (c) 2004 Oleg Berngardt. All rights reserved.
Copyright (c) 2004 Alexander Djourik. All rights reserved.
FILE: 08. Pulsar.flac
  Size: 35510576 Hash: FD0E8E44C4514D15CC9019E830B72375 Accuracy: -m0
  Conclusion: CDDA 100%
  Signature: 2BC13A5D64BCA4165F7B88E53A620BBBEFFA99DC
FILE: 07. Secret Marriage.flac
  Size: 45628468 Hash: ACBCB65E2E001E885E1361A175635AED Accuracy: -m0
  Conclusion: CDDA 99%
  Signature: AAAD43FC3983D08936AB5F5D1D07B55FDFB2F132
FILE: 06. The Magician.flac
  Size: 34411649 Hash: 2C9B7AE451EF81526EADC733FCEDB57A Accuracy: -m0
  Conclusion: CDDA 43%
  Signature: C9F9350F77D06678A6912491D24B67E7B5325537
FILE: 05. Follow What You Are.flac
  Size: 41854316 Hash: 73378A973073CCA933BAA9E417B9468F Accuracy: -m0
  Conclusion: CDDA 100%
  Signature: 7B4988DEE045499ADE8921AEDEECD2623E2BCE86
FILE: 04. Views From A Blue Train.flac
  Size: 33781264 Hash: B401625CBFEBDAC38C889E8B4FF0ECE0 Accuracy: -m0
  Conclusion: CDDA 100%
  Signature: 369E179A1581C2534BA7F25E0AB47A9E0CFBC3AC
FILE: 03. Ode To Mom.flac
  Size: 39893996 Hash: 8A45BEE5BAB375113149A3E5D28E5E67 Accuracy: -m0
  Conclusion: CDDA 100%
  Signature: 3419144200820F97FC355AD4E2F3F7A86708D776
FILE: 02. Wrapped In Your Hair.flac
  Size: 33235890 Hash: A4BDC94718A2A46D1A8312FC4D6FB484 Accuracy: -m0
  Conclusion: CDDA 100%
  Signature: 1EFEFC2FDE9CC55DF65A530F3BF354426C4370C1
FILE: 01. The Awakening.flac
  Size: 34691227 Hash: A6051A4A3A372C32DDDA6BF22B02252E Accuracy: -m0
  Conclusion: CDDA 99%
  Signature: B982E0CF37F6140D83E0BD3D400C109BEFCA8DA3
 
 
Лог DRM
foobar2000 1.3.9 / Dynamic Range Meter 1.1.1
log date: 2018-03-18 22:45:52
--------------------------------------------------------------------------------
Analyzed: Almunia / Pulsar
--------------------------------------------------------------------------------
DR         Peak         RMS     Duration Track
--------------------------------------------------------------------------------
DR7       -0.35 dB    -9.62 dB      6:10 01-The Awakening
DR7       -0.28 dB    -8.95 dB      5:29 02-Wrapped In Your Hair
DR6       -0.35 dB    -8.74 dB      6:26 03-Ode To Mom
DR7       -0.66 dB    -8.95 dB      6:00 04-Views From A Blue Train
DR7       -0.28 dB    -8.33 dB      7:09 05-Follow What You Are
DR6       -0.28 dB    -9.10 dB      7:14 06-The Magician
DR6       -0.35 dB    -7.73 dB      6:58 07-Secret Marriage
DR7       -0.35 dB    -9.60 dB      5:55 08-Pulsar
--------------------------------------------------------------------------------
Number of tracks:  8
Official DR value: DR6
Samplerate:        44100 Hz
Channels:          2
Bits per sample:   16
Bitrate:           801 kbps
Codec:             FLAC
================================================================================
Источник - https://almunia.bandcamp.com/album/pulsar
 
 
2013 - One Time (EP) [21:09] {WEB}
Tracklist:
01. One Time (Original Mix) (6:25)
02. One Time (Craig Bratley Remix) (5:49)
03. One Time (Andrew Clarke Remix) (8:56)
 
 
Лог проверки качества
-----------------------
DON'T MODIFY THIS FILE
-----------------------
PERFORMER: auCDtect Task Manager, ver. 1.6.0 RC1 build 1.6.0.1
Copyright (c) 2008-2010 y-soft. All rights reserved
http://y-soft.org
ANALYZER: auCDtect: CD records authenticity detector, version 0.8.2
Copyright (c) 2004 Oleg Berngardt. All rights reserved.
Copyright (c) 2004 Alexander Djourik. All rights reserved.
FILE: 03. One Time (Andrew Clarke Remix).flac
  Size: 57855640 Hash: 740FBF2670576F4BAD06B11B92E1209A Accuracy: -m0
  Conclusion: CDDA 100%
  Signature: 913B282F1FCB32049A6CADFC337AC48B46878FAD
FILE: 02. One Time (Craig Bratley Remix).flac
  Size: 29058922 Hash: 737F9FAE994D06F13DAAA01F1DD58A50 Accuracy: -m0
  Conclusion: CDDA 100%
  Signature: 8410A503939CBDE82099C81035FAAD958642F4FB
FILE: 01. One Time (Original Mix).flac
  Size: 42417104 Hash: BD1700CA76A67202C1AD500D3006F592 Accuracy: -m0
  Conclusion: CDDA 100%
  Signature: DC46512646C550AFAF908834A47B0B2A996F12A4
 
 
Лог DRM
foobar2000 1.3.9 / Dynamic Range Meter 1.1.1
log date: 2018-03-18 22:45:22
--------------------------------------------------------------------------------
Analyzed: Almunia / One Time
--------------------------------------------------------------------------------
DR         Peak         RMS     Duration Track
--------------------------------------------------------------------------------
DR7       -0.71 dB   -10.26 dB      6:25 01-One Time (Original Mix)
DR10      -0.71 dB   -11.43 dB      5:49 02-One Time (Craig Bratley Remix)
DR8       -0.71 dB   -10.77 dB      8:56 03-One Time (Andrew Clarke Remix)
--------------------------------------------------------------------------------
Number of tracks:  3
Official DR value: DR8
Samplerate:        44100 Hz
Channels:          2
Bits per sample:   16
Bitrate:           864 kbps
Codec:             FLAC
================================================================================
Источник - https://www.junodownload.com/products/almunia-one-time/2292643-02/
 
 
2013 - Cassandra's Dream (EP) [21:22] {WEB}
Tracklist:
01. Cassandra's Dream (7:04)
02. Wichita (7:36)
03. Space & Time (6:42)
 
 
Лог проверки качества
-----------------------
DON'T MODIFY THIS FILE
-----------------------
PERFORMER: auCDtect Task Manager, ver. 1.6.0 RC1 build 1.6.0.1
Copyright (c) 2008-2010 y-soft. All rights reserved
http://y-soft.org
ANALYZER: auCDtect: CD records authenticity detector, version 0.8.2
Copyright (c) 2004 Oleg Berngardt. All rights reserved.
Copyright (c) 2004 Alexander Djourik. All rights reserved.
FILE: 03. Almunia - Space & Time.flac
  Size: 41467043 Hash: BE038E14EB11ECFAA2FAB8692B741FFA Accuracy: -m0
  Conclusion: CDDA 100%
  Signature: ABBA2F0C34DEB921B43B5FFA1742D82256E5C47B
FILE: 02. Almunia - Wichita.flac
  Size: 47729280 Hash: 78DC0218609481895E49CE1DD4799C29 Accuracy: -m0
  Conclusion: CDDA 100%
  Signature: CCC4E544F3EEE70185B68DC2062C8D01C7EC2107
FILE: 01. Almunia - Cassandra's Dream.flac
  Size: 42203043 Hash: 2250270B64013DDDF630BDC4C576F3A3 Accuracy: -m0
  Conclusion: CDDA 100%
  Signature: 70816CB37F64A717AA1D59C25785EDE1F2C15789
 
 
Лог DRM
foobar2000 1.3.9 / Dynamic Range Meter 1.1.1
log date: 2018-03-18 22:45:03
--------------------------------------------------------------------------------
Analyzed: Almunia / Cassandra's Dream
--------------------------------------------------------------------------------
DR         Peak         RMS     Duration Track
--------------------------------------------------------------------------------
DR7       -0.04 dB    -8.30 dB      7:04 01-Cassandra's Dream
DR10      -0.04 dB   -11.52 dB      7:36 02-Wichita
DR8       -0.05 dB   -10.47 dB      6:42 03-Space & Time
--------------------------------------------------------------------------------
Number of tracks:  3
Official DR value: DR8
Samplerate:        44100 Hz
Channels:          2
Bits per sample:   16
Bitrate:           822 kbps
Codec:             FLAC
================================================================================
Источник - https://www.junodownload.com/products/almunia-cassandras-dream/3662088-02/
10:41
1201
Нет комментариев. Ваш будет первым!