Поиск

2011 Jeff Lorber Fusion - Galaxy {Heads Up HUI 33173-02} [CD]

2011 Jeff Lorber Fusion - Galaxy {Heads Up HUI 33173-02} [CD]
Издатель (лейбл):
Треклист:

Год издания диска: 2011
Место записи: JHL SOund, Pacific Palisades, CA
Номер по каталогу: HUI 33173-02
Аудиокодек: FLAC (*.flac)
Тип рипа: image+.cue
Битрейт аудио: lossless
Продолжительность: 55:36 min
Источник (релизер): denlenz -- israbox.com
Наличие сканов в содержимом раздачи: да
Треклист:
01. Live Wire [07:03]
02. Big Brother [04:50]
03. Montserrat [04:58]
04. Singaraja [04:37]
05. Galaxy [05:17]
06. City [04:29]
07. Horace (Dedicated To Horace Silver) [05:34]
08. The Samba (Feat. Larry Koonse) [04:49]
09. Rapids [04:25]
10. Wizard Island [04:50]
11. The Underground (Feat. Randy Brecker) [04:39]

 
Лог создания рипа
Exact Audio Copy V0.99 prebeta 5 from 4. May 2009
EAC extraction logfile from 18. January 2012, 15:25
Jeff Lorber Fusion / Galaxy
Used drive  : Optiarc DVD RW AD-5200A   Adapter: 0  ID: 0
Read mode               : Secure
Utilize accurate stream : Yes
Defeat audio cache      : Yes
Make use of C2 pointers : No
Read offset correction                      : 48
Overread into Lead-In and Lead-Out          : No
Fill up missing offset samples with silence : Yes
Delete leading and trailing silent blocks   : No
Null samples used in CRC calculations       : Yes
Used interface                              : Native Win32 interface for Win NT & 2000
Used output format              : User Defined Encoder
Selected bitrate                : 1024 kBit/s
Quality                         : High
Add ID3 tag                     : No
Command line compressor         : C:\Program Files\Exact Audio Copy\FLAC\FLAC.EXE
Additional command line options : -8 -V -T "ARTIST=%a" -T "TITLE=%t" -T "ALBUM=%g" -T "DATE=%y" -T "TRACKNUMBER=%n" -T "GENRE=%m" -T "COMMENT=EAC FLAC -8" %s
TOC of the extracted CD
     Track |   Start  |  Length  | Start sector | End sector
    ---------------------------------------------------------
        1  |  0:00.00 |  7:03.25 |         0    |    31749
        2  |  7:03.25 |  4:50.41 |     31750    |    53540
        3  | 11:53.66 |  4:58.67 |     53541    |    75957
        4  | 16:52.58 |  4:37.16 |     75958    |    96748
        5  | 21:29.74 |  5:17.05 |     96749    |   120528
        6  | 26:47.04 |  4:29.45 |    120529    |   140748
        7  | 31:16.49 |  5:34.65 |    140749    |   165863
        8  | 36:51.39 |  4:49.49 |    165864    |   187587
        9  | 41:41.13 |  4:25.73 |    187588    |   207535
       10  | 46:07.11 |  4:50.20 |    207536    |   229305
       11  | 50:57.31 |  4:39.28 |    229306    |   250258
Range status and errors
Selected range
     Filename E:\MUSIC\WAV\Jeff Lorber Fusion - Galaxy.wav
     Peak level 100.0 %
     Range quality 100.0 %
     Test CRC 12988454
     Copy CRC 12988454
     Copy OK
No errors occurred
AccurateRip summary
Track  1  not present in database
Track  2  not present in database
Track  3  not present in database
Track  4  not present in database
Track  5  not present in database
Track  6  not present in database
Track  7  not present in database
Track  8  not present in database
Track  9  not present in database
Track 10  not present in database
Track 11  not present in database
None of the tracks are present in the AccurateRip database
End of status report
 
Содержание индексной карты (.CUE)
REM GENRE Fusion
REM DATE 2011
REM DISCID 900D080B
REM COMMENT "ExactAudioCopy v0.99pb5"
PERFORMER "Jeff Lorber Fusion"
TITLE "Galaxy"
FILE "Jeff Lorber Fusion - Galaxy.flac" WAVE
  TRACK 01 AUDIO
    TITLE "Live Wire"
    PERFORMER "Jeff Lorber Fusion"
    INDEX 01 00:00:00
  TRACK 02 AUDIO
    TITLE "Big Brother"
    PERFORMER "Jeff Lorber Fusion"
    INDEX 01 07:03:25
  TRACK 03 AUDIO
    TITLE "Montserrat"
    PERFORMER "Jeff Lorber Fusion"
    INDEX 01 11:53:66
  TRACK 04 AUDIO
    TITLE "Singaraja"
    PERFORMER "Jeff Lorber Fusion"
    INDEX 00 16:52:18
    INDEX 01 16:52:58
  TRACK 05 AUDIO
    TITLE "Galaxy"
    PERFORMER "Jeff Lorber Fusion"
    INDEX 01 21:29:74
  TRACK 06 AUDIO
    TITLE "City"
    PERFORMER "Jeff Lorber Fusion"
    INDEX 00 26:46:65
    INDEX 01 26:47:04
  TRACK 07 AUDIO
    TITLE "Horace"
    PERFORMER "Jeff Lorber Fusion"
    INDEX 00 31:16:00
    INDEX 01 31:16:49
  TRACK 08 AUDIO
    TITLE "The Samba"
    PERFORMER "Jeff Lorber Fusion"
    INDEX 01 36:51:39
  TRACK 09 AUDIO
    TITLE "Rapids"
    PERFORMER "Jeff Lorber Fusion"
    INDEX 01 41:41:13
  TRACK 10 AUDIO
    TITLE "Wizard Island"
    PERFORMER "Jeff Lorber Fusion"
    INDEX 00 46:06:35
    INDEX 01 46:07:11
  TRACK 11 AUDIO
    TITLE "The Underground"
    PERFORMER "Jeff Lorber Fusion"
    INDEX 00 50:57:19
    INDEX 01 50:57:31
 
Лог проверки качества
AUDIOCHECKER v2.0 beta (build 457) - by Dester - opdester@freemail.hu
~~~~~~~~~~~~~~~~~~~~~~~~~~~~~~~~~~
-=== DO NOT EDIT THIS FILE! ===-
Path: ...\WAV
1 -=- Jeff Lorber Fusion - Galaxy.flac -=- CDDA (100%)
193807940
Состав:
  • Randy Brecker    Trumpet
  • Lenny Castro    Percussion
  • Vinnie Colaiuta    Drums
  • Jimmy Haslip    Bass, Bass (Electric), Composer, Percussion, Producer, Soloist
  • Paul Jackson, Jr.    Guitar, Guitar (Rhythm), Synthesizer Bass
  • Larry Koonse    Fills, Guitar, Soloist
  • Jeff Lorber    Composer, Engineer, Fender Rhodes, Guitar, Loops, Mini Moog, Mixing, Piano, Producer, Synthesizer Bass
  • Dave Mann    Horn, Horn Arrangements
  • Eric Marienthal    Sax (Alto), Sax (Soprano), Sax (Tenor)
  • Ada Rovatti    Engineer
  • Anders "Theo" Theander    Guitar
  • Michael Thompson    Guitar
  • Dave Weckl    Drum Engineering, Drums
02:29
868
Нет комментариев. Ваш будет первым!