Вы используете незарегистрированную версию компонента "Вкладки"!

Поиск

2015 Gypsophilia - Night Swimming {Forward FMG051} [WEB]

2015 Gypsophilia - Night Swimming {Forward FMG051} [WEB]
Стили:
Дата записи диска:
3, 4 мая; 11, 12, 18, 19 октября; 1, 2, 8, 9 ноября 2014.
Место записи:
Dartmouth, Nova Scotia @ New Scotland Yard Studio
Дата издания диска:
19 мая 2015
Номер по каталогу:
Forward Music Group FMG051
Носитель:
WEB
Тип рипа:
tracks+.cue
Аудиокодек:
FLAC (*.flac)
Битрейт аудио:
lossless
Время звучания:
00:40:53
Наличие сканов:
нет
Страна-производитель диска (релиза):
Canada

Треклист:

1. Boo Doo Down 4:58
2. Cake Walk 3:39
3. Insomniac's Dream 4:00
4. Long Shadows 4:12
5. Deep Water 4:28
6. Dirty Circus 5:26
7. RitiB (Right In The In Between) 5:56
8. Jaures 3:11
9. Night Falls And You Need Company 4:59

Доп. инфо:
bandcamp.com,
forwardmusicgroup.com,
gypsophilia.org,
discogs.com

 
DRM.log

foobar2000 1.2.6 / Dynamic Range Meter 1.1.1
log date: 2015-09-06 20:26:52

--------------------------------------------------------------------------------
Analyzed: Gypsophilia / Night Swimming
--------------------------------------------------------------------------------

DR         Peak         RMS     Duration Track
--------------------------------------------------------------------------------
DR6       -0.10 dB    -7.14 dB      4:58 01-Boo Doo Down
DR7       -0.07 dB    -9.15 dB      3:40 02-Cake Walk
DR7       -0.09 dB    -9.27 dB      4:00 03-Insomniac's Dream
DR7       -0.01 dB   -10.17 dB      4:12 04-Long Shadows
DR8       -0.31 dB   -12.33 dB      4:28 05-Deep Water
DR5       -0.01 dB    -7.80 dB      5:27 06-Dirty Circus
DR8       -0.01 dB   -10.82 dB      5:57 07-RITIB (Right In The In Between)
DR6       -0.01 dB    -8.20 dB      3:11 08-Juarès
DR8       -0.24 dB   -10.33 dB      5:00 09-Night Falls And You Need Company
--------------------------------------------------------------------------------

Number of tracks:  9
Official DR value: DR7

Samplerate:        44100 Hz
Channels:          2
Bits per sample:   16
Bitrate:           676 kbps
Codec:             FLAC
================================================================================

 
auCDtect

-----------------------

DON'T MODIFY THIS FILE

-----------------------

PERFORMER: auCDtect Task Manager, ver. 1.6.0 RC1 build 1.6.0.1
Copyright (c) 2008-2010 y-soft. All rights reserved
http://y-soft.org

ANALYZER: auCDtect: CD records authenticity detector, version 0.8.2
Copyright (c) 2004 Oleg Berngardt. All rights reserved.
Copyright (c) 2004 Alexander Djourik. All rights reserved.


FILE: 09 - Night Falls And You Need Company.flac
  Size: 25337028 Hash: 42F3E08FF2DA5EB5C2A4DDB0B80ADC80 Accuracy: -m0
  Conclusion: CDDA 100%
  Signature: F1D008D42C7181915B962F91D7B59DD59EDB7BAC
FILE: 08 - Juares.flac
  Size: 19589493 Hash: 25B8F10B93B29FCBECB55C4E8F73525D Accuracy: -m0
  Conclusion: CDDA 100%
  Signature: C537FF5F7599F44EADEF2D4C6FF81DEF7A07F2C2
FILE: 07 - RitiB.flac
  Size: 37890357 Hash: 7B4DE0C8C5252624F0B56139543C5FB2 Accuracy: -m0
  Conclusion: CDDA 100%
  Signature: AF356DFDDBADEBBCDCA2DE79AC928194C4429219
FILE: 06 - Dirty Circus.flac
  Size: 33777111 Hash: AB0EBFA87846182A7C5FAD2C10FBF0FD Accuracy: -m0
  Conclusion: CDDA 100%
  Signature: 960078B50AA3BCA977EA3743E75AB45940D2E369
FILE: 05 - Deep Water.flac
  Size: 24205403 Hash: CF1CCC0ACCB0E3281633FBFA035AB053 Accuracy: -m0
  Conclusion: CDDA 100%
  Signature: DE4647D5745ACAD4740913445CC7E8319F65E072
FILE: 04 - Long Shadows.flac
  Size: 24240473 Hash: 4AB6CBA21288E7B44468CB6BBC27D717 Accuracy: -m0
  Conclusion: CDDA 100%
  Signature: 9E09B6C1D88AFEBF9E556427A90CBD2F4FE4551B
FILE: 03 - Insomniac_s Dream.flac
  Size: 26371443 Hash: 75BDA82555F4545E6B2F930623FF244E Accuracy: -m0
  Conclusion: CDDA 100%
  Signature: 7D4E41BD544D42542CFE79E5931916100C4E068D
FILE: 02 - Cake Walk.flac
  Size: 24484281 Hash: E69C569552320C2314ED4389567439F1 Accuracy: -m0
  Conclusion: CDDA 100%
  Signature: 1ED2DE6DAEA7E825DB9DCD7987458A7178701951
FILE: 01 - Boo Doo Down.flac
  Size: 31143185 Hash: 6EF665DC2CE31B053D3EB2175A53101D Accuracy: -m0
  Conclusion: CDDA 100%
  Signature: B3BDBCFB74D7D580BE92F775981C2F812C135C96

Состав:
  • Double Bass – Adam Fine
  • Engineer – Thomas Stajcer
  • Engineer [Assistant Engineer] – Aidan Coady
  • Guitar, Bass Drum, Shaker, Wood Block, Cabasa – Alec Frith
  • Guitar, Pandeiro, Berimbau, Tambourine, Cuica – Ross Burns
  • Guitar, Piano, Udu, Ukulele – Nick Wilkinson (2)
  • Mastered By – Reuben Ghose
  • Percussion [Additional Percussion], Keyboards [Additional Keyboards], Electronics – Joshua Van Tassel
  • Piano, Accordion, Electric Piano [Rhodes, Wurlitzer] – Sageev Oore
  • Producer, Mixed By – Joshua Van Tassel
  • Trumpet, Organ [Hammond B3], Electric Piano [Rhodes], Piano, Clavinet, Keyboards [Nord Electro 3], Guiro, Cowbell, Cymbal [Tingsha] – Matt Myer (2)
  • Violin, Glockenspiel, Agogô – Gina Burgess
Any questions -> support@pro-jazz.com. По всем вопросам пишите -> support@pro-jazz.com
11:09
274
Нет комментариев. Ваш будет первым!