Вы используете незарегистрированную версию компонента "Вкладки"!

Поиск

2016 Caro Josée - Summer's Ease {Skip} [24-96]

2016 Caro Josée - Summer's Ease {Skip} [24-96]
Дата издания диска:
22 марта 2016
Номер по каталогу:
SKP 9129-2
Носитель:
WEB
Формат:
PCM
Тип рипа:
tracks
Контейнер:
FLAC (*.flac)
Количество каналов:
2.0
Разрядность/ЧД:
24/96
Битрейт аудио:
lossless
Время звучания:
00:46:35
Наличие сканов:
только обложка
Лог проверки качества
foobar2000 1.6.2 / Dynamic Range Meter 1.1.1
log date: 2021-11-30 11:24:15

--------------------------------------------------------------------------------
Analyzed: Caro Josée / Summer's Ease
--------------------------------------------------------------------------------

DR         Peak         RMS     Duration Track
--------------------------------------------------------------------------------
DR9       -0.53 dB   -11.21 dB      4:50 01-Cocomo
DR10      -0.60 dB   -11.99 dB      2:27 02-In Distress
DR9       -0.58 dB   -11.43 dB      2:41 03-All Forgotten Dreams
DR9       -0.53 dB   -11.39 dB      4:34 04-Mr. Django
DR8       -0.58 dB   -10.54 dB      2:43 05-If There's a Heaven
DR8       -0.60 dB   -11.59 dB      5:38 06-Isfahan
DR8       -0.57 dB   -10.62 dB      4:52 07-Like a Cha Cha
DR9       -0.60 dB   -11.83 dB      3:11 08-Louboutins
DR10      -0.59 dB   -12.02 dB      2:19 09-On the Sunny Side
DR10      -0.52 dB   -13.19 dB      4:41 10-Girl from Vietnam
DR11      -0.57 dB   -13.75 dB      5:15 11-Rain Down
DR9       -0.57 dB   -11.52 dB      3:31 12-Marguerite
--------------------------------------------------------------------------------

Number of tracks:  12
Official DR value: DR9

Samplerate:        96000 Hz
Channels:          2
Bits per sample:   24
Bitrate:           2700 kbps
Codec:             FLAC
================================================================================
Any questions - support@pro-jazz.com. Есть вопросы - support@pro-jazz.com
12:35
79
Нет комментариев. Ваш будет первым!