Поиск

2018 Dave Koz And Friends - Summer Horns II from A to Z {Concord} [24-44,1]

2018 Dave Koz And Friends - Summer Horns II from A to Z {Concord} [24-44,1]
Издатель (лейбл):

Треклист:

Формат записи/Источник записи: [TR24][OF]
Наличие водяных знаков: Нет
Год издания/переиздания диска: 2018
Продолжительность: 54:54
Наличие сканов в содержимом раздачи: Буклет PDF
Источник: WRZmusic
Магазин: i-classical.com
Контейнер: FLAC (*.flac)
Тип рипа: tracks
Разрядность: 24/44,1
Формат: PCM
Количество каналов: 2.0

Треклист:
01. Medley: Getaway / That’s The Way (I Like It) (4:28)
02. More Today Than Yesterday (5:05)
03. Keep That Same Old Feeling (4:50)
04. Medley: From A To Z (Take The “A” Train / Make The Road By Walking) (5:29)
05. This Will Be (An Everlasting Love) (feat. Kenny Lattimore & Sheléa) (4:11)
06. Before I Let Go (4:55)
07. Late In The Evening (feat. Jonathan Butler) (5:10)
08. If You Really Love Me (4:43)
09. Conga (feat. Aubrey Logan & Gloria Estefan) (4:44)
10. Earth Song (5:58)
11. Route 66 (feat. Aubrey Logan) (5:20)

 
Лог проверки качества
foobar2000 1.3.9 / Dynamic Range Meter 1.1.1
log date: 2018-06-24 00:35:25
--------------------------------------------------------------------------------
Analyzed: Dave Koz And Friends / Summer Horns II From A To Z
--------------------------------------------------------------------------------
DR         Peak         RMS     Duration Track
--------------------------------------------------------------------------------
DR9        0.00 dB   -10.39 dB      4:28 01-Medley: Getaway / That’s The Way (I Like It)
DR8        0.00 dB    -9.09 dB      5:05 02-More Today Than Yesterday
DR9        0.00 dB   -11.31 dB      4:50 03-Keep That Same Old Feeling
DR9        0.00 dB   -10.52 dB      5:29 04-Medley: From A To Z (Take The “A” Train / Make The Road By Walking)
DR8        0.00 dB    -9.73 dB      4:11 05-This Will Be (An Everlasting Love) (feat. Kenny Lattimore & Sheléa)
DR9        0.00 dB   -10.04 dB      4:55 06-Before I Let Go
DR9        0.00 dB   -10.68 dB      5:10 07-Late In The Evening (feat. Jonathan Butler)
DR9        0.00 dB   -11.36 dB      4:43 08-If You Really Love Me
DR9        0.00 dB   -11.06 dB      4:44 09-Conga (feat. Aubrey Logan & Gloria Estefan)
DR9        0.00 dB   -11.69 dB      5:58 10-Earth Song
DR9        0.00 dB   -11.53 dB      5:20 11-Route 66 (feat. Aubrey Logan)
--------------------------------------------------------------------------------
Number of tracks:  11
Official DR value: DR9
Samplerate:        44100 Hz
Channels:          2
Bits per sample:   24
Bitrate:           1629 kbps
Codec:             FLAC
================================================================================

 

Состав:
  • Greg Adams Horn Arrangements
  • Gerald Albright Alto, Horn Arrangements, Sax (Alto), Sax (Tenor)
  • Luca Alemanno Bass (Acoustic)
  • Rick Braun Drum Programming, Engineer, Flugelhorn, Horn Arrangements, Keyboards, Mixing, Producer, Rhythm Accompaniment, Rhythm Arrangements, Trumpet, Vocals
  • Jonathan Butler Guitar (Acoustic), Vocals
  • Ashling Cole Vocals
  • Chris "Big Dog" Davis Keyboards, Programming, Rhythm Arrangements, Synthesizer Bass
  • Lamont Dozier Vocals, Vocals (Background)
  • Richard Elliot Sax (Tenor), Tenor (Vocal)
  • Gloria Estefan Vocal Harmony
  • Lynne Fiddmont Vocals
  • David Garfield Keyboards, Piano
  • Gordon Goodwin Horn Arrangements, Piano, Rhythm Arrangements, Synthesizer Bass
  • Adam Hawley Guitar
  • Herman Jackson Keyboards
  • Randy Jacobs Guitar
  • Nathaniel Kearney, Jr. Bass
  • Dave Koz Executive Producer, Producer, Sax (Alto), Sax (Baritone), Sax (Soprano), Sax (Tenor), Vocals
  • Nick Lane Horn Arrangements
  • Kenny Lattimore Vocals
  • Aubrey Logan Trombone, Vocals, Vocals (Background)
  • Khari Parker Drums
  • Nate Phillips Bass
  • Michael Ragonese Keyboards
  • Franklin "Third" Richardson Drums, Vocals
  • James Roberson Keyboards, Programming, Rhythm Arrangements, Synthesizer Bass
  • Tom Scott Horn Arrangements
  • Sheléa Vocals
  • Brian Simpson Keyboards
  • Leslie Smith Vocals
  • John Stoddart Keyboards, Rhythm Arrangements, Vocals
  • Steve Sykes Engineer
  • Jamey Tate Drums
  • Eric Valentine Drums
  • Ramon Yslas Percussion
11:57
1857
Нет комментариев. Ваш будет первым!