Поиск

2019 Andrea Castelfranato - Anxanum {Fonè} [DST64 ISO]

2019 Andrea Castelfranato - Anxanum {Fonè} [DST64 ISO]
Стили:
Дата издания диска:
4 марта 2019
Издатель (лейбл):
Номер по каталогу:
204SACD
Носитель:
SACD
Формат:
DST
Тип рипа:
image
Контейнер:
ISO (*.iso)
Количество каналов:
2.0
Разрядность/ЧД:
64 (2,8 MHz/1 Bit)
Битрейт аудио:
lossless
Время звучания:
00:49:44
Наличие сканов:
да

Треклист:

01. Louisiana Blues  02:58
02. Kiitos  03:40
03. I Remember You  04:02
04. Get Back  03:19
05. Isole  02:53
06. Sweet Little Town  02:47
07. Memories  04:14
08. Fields of Gold  03:49
09. Mediterranean Sundance  06:19
10. Guarda che luna   05:18
11. Quando  03:33
12. Vola vola  04:11
13. Aria di te  02:36

Состав:
  • Andrea Castelfranato — acoustic guitar, nylon guitar fingerstyle
Доп. инфо:

Recording Software: Pyramix, Merging Technologies
Recording Type & Bit Rate: DSD 64fs

Лог проверки качества
foobar2000 1.6.8 / Dynamic Range Meter 1.1.1
log date: 2021-12-31 10:32:49
--------------------------------------------------------------------------------
Analyzed: A. CASTELFRANATO / ANXANUM
--------------------------------------------------------------------------------
DR         Peak         RMS     Duration Track
--------------------------------------------------------------------------------
DR14      -6.89 dB   -24.17 dB      2:58 01-LOUISIANA BLUES
DR11     -11.03 dB   -27.39 dB      3:40 02-KIITOS
DR13      -7.14 dB   -24.94 dB      4:02 03-I REMEMBER YOU
DR12      -7.72 dB   -23.08 dB      3:20 04-GET BACK
DR11      -9.08 dB   -26.59 dB      2:54 05-ISOLE
DR11      -7.64 dB   -23.78 dB      2:47 06-SWEET LITTLE TOWN
DR11     -11.04 dB   -25.49 dB      4:14 07-MEMORIES
DR13     -14.11 dB   -30.81 dB      3:49 08-FIELDS OF GOLD
DR15      -6.95 dB   -25.61 dB      6:20 09-MEDITERRANEAN SUNDANCE
DR14      -7.80 dB   -25.52 dB      5:18 10-GUARDA CHE LUNA
DR12      -9.59 dB   -26.11 dB      3:33 11-QUANDO
DR14     -10.16 dB   -28.22 dB      4:12 12-VOLA VOLA
DR11     -13.80 dB   -29.18 dB      2:36 13-ARIA DI TE
--------------------------------------------------------------------------------
Number of tracks:  13
Official DR value: DR12
Samplerate:        2822400 Hz / PCM Samplerate: 88200 Hz
Channels:          2
Bits per sample:   1
Bitrate:           5645 kbps
Codec:             DST64
================================================================================
По всем вопросам пишите личное сообщение пользователю M0p94ok.
20:42
100
Нет комментариев. Ваш будет первым!