Поиск

2019 George Benson - Walking To New Orleans {Mascot, Provogue} [24-48]

2019 George Benson - Walking To New Orleans {Mascot, Provogue} [24-48]

Треклист:

01 - Nadine (Is It You) (3:53)
02 - Ain't That A Shame (3:50)
03 - Rockin' Chair (3:39)
04 - You Can't Catch Me (3:35)
05 - Havana Moon (4:54)
06 - I Hear You Knocking (3:45)
07 - Memphis, Tennessee (3:19)
08 - Walking To New Orleans (4:08)
09 - Blue Monday (3:03)
10 - How You've Changed (3:20)

Формат записи/Источник записи: [TR24][OF]
Наличие водяных знаков: Нет
Год издания/переиздания диска: 2019
Жанр: Blues
Издатель (лейбл): Mascot Label Group/Provogue
Продолжительность: 00:37:28
Наличие сканов в содержимом раздачи: Только обложка альбома

Контейнер: FLAC (*.flac)
Тип рипа: tracks
Разрядность: 24/48
Формат: PCM
Количество каналов: 2.0

Источник: pic

 
Official DR value: DR9
foobar2000 1.4.3 / Dynamic Range Meter 1.1.1
log date: 2019-04-28 19:46:11
--------------------------------------------------------------------------------
Analyzed: George Benson / Walking To New Orleans
--------------------------------------------------------------------------------
DR         Peak         RMS     Duration Track
--------------------------------------------------------------------------------
DR9       -0.10 dB   -10.33 dB      3:53 01-Nadine (Is It You)
DR9       -0.10 dB   -10.56 dB      3:50 02-Ain't That A Shame
DR10      -0.10 dB   -10.91 dB      3:39 03-Rockin' Chair
DR9       -0.10 dB   -10.25 dB      3:35 04-You Can't Catch Me
DR9       -0.10 dB   -10.28 dB      4:54 05-Havana Moon
DR9       -0.10 dB   -10.37 dB      3:45 06-I Hear You Knocking
DR9       -0.10 dB    -9.95 dB      3:19 07-Memphis, Tennessee
DR9       -0.10 dB   -10.32 dB      4:08 08-Walking To New Orleans
DR9       -0.10 dB   -10.44 dB      3:03 09-Blue Monday
DR9       -0.10 dB   -10.25 dB      3:20 10-How You've Changed
--------------------------------------------------------------------------------
Number of tracks:  10
Official DR value: DR9
Samplerate:        48000 Hz
Channels:          2
Bits per sample:   24
Bitrate:           1593 kbps
Codec:             FLAC
================================================================================
20:30
817
Нет комментариев. Ваш будет первым!