Поиск

2019 Jerry Bergonzi - The Seven Rays {Savant SCD 2170} [CD]

2019 Jerry Bergonzi - The Seven Rays {Savant SCD 2170} [CD]
Битрейт аудио:
lossless

01. 1st Ray: Intention (06:40)
02. 2nd Ray: Magnetism (07:32)
03. 3rd Ray: Creation (06:35)
04. 4th Ray: Harmony (07:23)
05. 5th Ray: Knowledge (08:07)
06. 6th Ray: Devotion (08:58)
07. 7th Ray: Order (03:56)
08. Sun Worship Ritual (04:35)

Состав:
  • Jerry Bergonzi — tenor saxophone
  • Phil Grenadier — trumpet
  • Carl Winther — piano
  • Johnny Aman — bass
  • Anders Mogensen — drums

Жанр: Contemporary Jazz, Post-Bop
Носитель: CD
Год издания: 2019
Издатель (лейбл): Savant
Номер по каталогу: SCD 2170
Аудиокодек: FLAC (*.flac)
Тип рипа: tracks+.cue
Продолжительность: 00:53:50
Источник: www
Наличие сканов в содержимом раздачи: нет

Лог создания рипа
X Lossless Decoder version 20181019 (151.1)

XLD extraction logfile from 2019-04-18 14:03:21 -0700

 Jerry Bergonzi Quintet  / The Seven Rays

Used drive : hp DVDRAM GT20L (revision DC05)
Media type : Pressed CD

Ripper mode             : XLD Secure Ripper
Disable audio cache     : OK for the drive with a cache less than 1375KiB
Make use of C2 pointers : NO
Read offset correction  : 667
Max retry count         : 100
Gap status              : Analyzed, Appended (except HTOA)

TOC of the extracted CD
     Track |   Start  |  Length  | Start sector | End sector
    ---------------------------------------------------------
        1  | 00:00:00 | 06:40:24 |         0    |    30023
        2  | 06:40:24 | 07:32:49 |     30024    |    63972
        3  | 14:12:73 | 06:35:29 |     63973    |    93626
        4  | 20:48:27 | 07:23:27 |     93627    |   126878
        5  | 28:11:54 | 08:07:64 |    126879    |   163467
        6  | 36:19:43 | 08:58:24 |    163468    |   203841
        7  | 45:17:67 | 03:56:48 |    203842    |   221589
        8  | 49:14:40 | 04:35:67 |    221590    |   242281

AccurateRip Summary
    Disc not found in AccurateRip DB.

All Tracks
    Album gain               : -7.12 dB
    Peak                     : 0.936890
    Statistics
        Read error                           : 0
        Jitter error (maybe fixed)           : 0
        Retry sector count                   : 0
        Damaged sector count                 : 0

Track 01
    Filename : /rips/ Jerry Bergonzi Quintet  - The Seven Rays (Unknown Year) [FLAC]/01 1st Ray-  Intention.flac
    Pre-gap length : 00:02:00

    Track gain               : -7.52 dB
    Peak                     : 0.916718
    CRC32 hash (test run)    : 6132B3EF
    CRC32 hash               : 6132B3EF
    CRC32 hash (skip zero)   : 104E8E29
    AccurateRip v1 signature : C750751B
    AccurateRip v2 signature : AE501E77
        ->Track not present in AccurateRip database.
    Statistics
        Read error                           : 0
        Jitter error (maybe fixed)           : 0
        Retry sector count                   : 0
        Damaged sector count                 : 0

Track 02
    Filename : /rips/ Jerry Bergonzi Quintet  - The Seven Rays (Unknown Year) [FLAC]/02 2nd Ray-  Magnetism .flac

    Track gain               : -5.49 dB
    Peak                     : 0.927582
    CRC32 hash (test run)    : 9B601294
    CRC32 hash               : 9B601294
    CRC32 hash (skip zero)   : DD9B7FA4
    AccurateRip v1 signature : 547C2C65
    AccurateRip v2 signature : 0C8976C4
        ->Track not present in AccurateRip database.
    Statistics
        Read error                           : 0
        Jitter error (maybe fixed)           : 0
        Retry sector count                   : 0
        Damaged sector count                 : 0

Track 03
    Filename : /rips/ Jerry Bergonzi Quintet  - The Seven Rays (Unknown Year) [FLAC]/03 3rd Ray-  Creation.flac

    Track gain               : -7.90 dB
    Peak                     : 0.925049
    CRC32 hash (test run)    : 28A336A8
    CRC32 hash               : 28A336A8
    CRC32 hash (skip zero)   : 5359A3D3
    AccurateRip v1 signature : 3F8FAA80
    AccurateRip v2 signature : C2EB8D99
        ->Track not present in AccurateRip database.
    Statistics
        Read error                           : 0
        Jitter error (maybe fixed)           : 0
        Retry sector count                   : 0
        Damaged sector count                 : 0

Track 04
    Filename : /rips/ Jerry Bergonzi Quintet  - The Seven Rays (Unknown Year) [FLAC]/04 4th Ray-  Harmony.flac

    Track gain               : -7.52 dB
    Peak                     : 0.916473
    CRC32 hash (test run)    : 2CFA5B5A
    CRC32 hash               : 2CFA5B5A
    CRC32 hash (skip zero)   : 9E379D5F
    AccurateRip v1 signature : 3D0089D0
    AccurateRip v2 signature : 05AB1DA8
        ->Track not present in AccurateRip database.
    Statistics
        Read error                           : 0
        Jitter error (maybe fixed)           : 0
        Retry sector count                   : 0
        Damaged sector count                 : 0

Track 05
    Filename : /rips/ Jerry Bergonzi Quintet  - The Seven Rays (Unknown Year) [FLAC]/05 5th Ray-  Knowledge.flac

    Track gain               : -7.64 dB
    Peak                     : 0.930939
    CRC32 hash (test run)    : E950DA10
    CRC32 hash               : E950DA10
    CRC32 hash (skip zero)   : BD48222A
    AccurateRip v1 signature : 00331C73
    AccurateRip v2 signature : C56C6349
        ->Track not present in AccurateRip database.
    Statistics
        Read error                           : 0
        Jitter error (maybe fixed)           : 0
        Retry sector count                   : 0
        Damaged sector count                 : 0

Track 06
    Filename : /rips/ Jerry Bergonzi Quintet  - The Seven Rays (Unknown Year) [FLAC]/06 6th Ray-  Devotion.flac

    Track gain               : -7.40 dB
    Peak                     : 0.928070
    CRC32 hash (test run)    : AB9FE183
    CRC32 hash               : AB9FE183
    CRC32 hash (skip zero)   : A23E7A9A
    AccurateRip v1 signature : 5FAA7651
    AccurateRip v2 signature : 9BFB68AF
        ->Track not present in AccurateRip database.
    Statistics
        Read error                           : 0
        Jitter error (maybe fixed)           : 0
        Retry sector count                   : 0
        Damaged sector count                 : 0

Track 07
    Filename : /rips/ Jerry Bergonzi Quintet  - The Seven Rays (Unknown Year) [FLAC]/07 7th Ray-  Order.flac

    Track gain               : -6.42 dB
    Peak                     : 0.936890
    CRC32 hash (test run)    : 7A99D7CE
    CRC32 hash               : 7A99D7CE
    CRC32 hash (skip zero)   : ABE02466
    AccurateRip v1 signature : 9C7B769D
    AccurateRip v2 signature : 5C0EB7CE
        ->Track not present in AccurateRip database.
    Statistics
        Read error                           : 0
        Jitter error (maybe fixed)           : 0
        Retry sector count                   : 0
        Damaged sector count                 : 0

Track 08
    Filename : /rips/ Jerry Bergonzi Quintet  - The Seven Rays (Unknown Year) [FLAC]/08 Sun Worship Ritual.flac

    Track gain               : -5.31 dB
    Peak                     : 0.936890
    CRC32 hash (test run)    : 25B68A15
    CRC32 hash               : 25B68A15
    CRC32 hash (skip zero)   : 76F55B9B
    AccurateRip v1 signature : 4EEFD5F1
    AccurateRip v2 signature : F3785085
        ->Track not present in AccurateRip database.
    Statistics
        Read error                           : 0
        Jitter error (maybe fixed)           : 0
        Retry sector count                   : 0
        Damaged sector count                 : 0

No errors occurred

End of status report

-----BEGIN XLD SIGNATURE-----
BTJk6ZELJmNqNF_oWABywpwtGDpLKaHrais4twLUr0Qrre_5f2p3pBhcM_heWwfSvLixxLYoUatU6uJQN0yKrAhvkj7cBw4iahpg61K
-----END XLD SIGNATURE-----
Содержание индексной карты (.CUE)
TITLE "The Seven Rays"
PERFORMER " Jerry Bergonzi Quintet "
CATALOG 0633842217024
REM DISCID 690C9E08
REM REPLAYGAIN_ALBUM_GAIN -7.12 dB
REM REPLAYGAIN_ALBUM_PEAK 0.936890
FILE "01 1st Ray-  Intention.flac" WAVE
  TRACK 01 AUDIO
    TITLE "1st Ray:  Intention"
    PERFORMER "  Jerry Bergonzi Quintet "
    ISRC USSTR1717001
    REM REPLAYGAIN_TRACK_GAIN -7.52 dB
    REM REPLAYGAIN_TRACK_PEAK 0.916718
    INDEX 01 00:00:00
FILE "02 2nd Ray-  Magnetism .flac" WAVE
  TRACK 02 AUDIO
    TITLE "2nd Ray:  Magnetism "
    PERFORMER "  Jerry Bergonzi Quintet "
    ISRC USSTR1717002
    REM REPLAYGAIN_TRACK_GAIN -5.49 dB
    REM REPLAYGAIN_TRACK_PEAK 0.927582
    INDEX 01 00:00:00
FILE "03 3rd Ray-  Creation.flac" WAVE
  TRACK 03 AUDIO
    TITLE "3rd Ray:  Creation"
    PERFORMER "  Jerry Bergonzi Quintet "
    ISRC USSTR1717003
    REM REPLAYGAIN_TRACK_GAIN -7.90 dB
    REM REPLAYGAIN_TRACK_PEAK 0.925049
    INDEX 01 00:00:00
FILE "04 4th Ray-  Harmony.flac" WAVE
  TRACK 04 AUDIO
    TITLE "4th Ray:  Harmony"
    PERFORMER "  Jerry Bergonzi Quintet "
    ISRC USSTR1717004
    REM REPLAYGAIN_TRACK_GAIN -7.52 dB
    REM REPLAYGAIN_TRACK_PEAK 0.916473
    INDEX 01 00:00:00
FILE "05 5th Ray-  Knowledge.flac" WAVE
  TRACK 05 AUDIO
    TITLE "5th Ray:  Knowledge"
    PERFORMER "  Jerry Bergonzi Quintet "
    ISRC USSTR1717005
    REM REPLAYGAIN_TRACK_GAIN -7.64 dB
    REM REPLAYGAIN_TRACK_PEAK 0.930939
    INDEX 01 00:00:00
FILE "06 6th Ray-  Devotion.flac" WAVE
  TRACK 06 AUDIO
    TITLE "6th Ray:  Devotion"
    PERFORMER "  Jerry Bergonzi Quintet "
    ISRC USSTR1717006
    REM REPLAYGAIN_TRACK_GAIN -7.40 dB
    REM REPLAYGAIN_TRACK_PEAK 0.928070
    INDEX 01 00:00:00
FILE "07 7th Ray-  Order.flac" WAVE
  TRACK 07 AUDIO
    TITLE "7th Ray:  Order"
    PERFORMER "  Jerry Bergonzi Quintet "
    ISRC USSTR1717007
    REM REPLAYGAIN_TRACK_GAIN -6.42 dB
    REM REPLAYGAIN_TRACK_PEAK 0.936890
    INDEX 01 00:00:00
FILE "08 Sun Worship Ritual.flac" WAVE
  TRACK 08 AUDIO
    TITLE "Sun Worship Ritual"
    PERFORMER "  Jerry Bergonzi Quintet "
    ISRC USSTR1717008
    REM REPLAYGAIN_TRACK_GAIN -5.31 dB
    REM REPLAYGAIN_TRACK_PEAK 0.936890
    INDEX 01 00:00:00
Скачивание доступно после регистрации!!
Приватный:
Нет (DHT включён)
Размер:
370.29 Мб (388,277,765 байт) » файлов: 11
Участники:
2 раздают, 0 качают (2 участников всего)
Внешние участники:
2 раздают, 1 качают (3 участников всего) [ Обновить ]
21:55
735
Нет комментариев. Ваш будет первым!