Поиск

2019 Konrad Paszkudzki Trio - The Things We Did Last Summer {Venus} [DSD64 ISO]

2019 Konrad Paszkudzki Trio - The Things We Did Last Summer {Venus} [DSD64 ISO]
Стили:
Дата записи диска:
27 июля - 28 июля 2018
Место записи:
Trading 8s Recording Studio, Paramus, NJ, USA
Издатель (лейбл):
Номер по каталогу:
VHGD-328
Носитель:
SACD
Формат:
DSD
Тип рипа:
image
Контейнер:
ISO (*.iso)
Количество каналов:
2.0
Разрядность/ЧД:
64 (2,8 MHz/1 Bit)
Битрейт аудио:
lossless
Время звучания:
00:47:44
Наличие сканов:
только обложка
Треклист:

01. The Things We Did Last Summer
02. All I Need Is The Girl
03. Time After Time
04. Guess I’ll Hang My Tears Out To Dry
05. It’s Been A Long, Long Time
06. I Believe
07. Never Never Land
08. I Fall In Love Too Easily
09. Just In Time
10. I’m Glad I Waited For You
11. It’s You Or No One
12. I’ve Heard That Song Before

Состав:
  • Konrad Paszkudzki – piano
  • Dylan Shamat – bass
  • Dag Markhus — drums
Лог проверки качества
foobar2000 1.6.8 / Dynamic Range Meter 1.1.1
log date: 2021-12-26 10:39:05
--------------------------------------------------------------------------------
Analyzed: KONRAD PASZKUDZKI TRIO / The Things We Did Last Summer
--------------------------------------------------------------------------------
DR         Peak         RMS     Duration Track
--------------------------------------------------------------------------------
DR7       -5.50 dB   -15.01 dB      3:54 01-The Things We Did Last Summer
DR8       -5.26 dB   -15.33 dB      4:53 02-All I Need Is The Girl
DR6       -5.39 dB   -13.27 dB      3:06 03-Time After Time
DR10      -5.58 dB   -17.41 dB      4:30 04-Guess I'll Hang My Tears Out To Dry
DR8       -5.43 dB   -14.79 dB      3:47 05-It's Been A Long, Long Time
DR7       -5.51 dB   -14.30 dB      4:12 06-I Believe
DR8       -5.51 dB   -16.27 dB      3:53 07-Never Never Land
DR8       -5.49 dB   -15.54 dB      4:12 08-I Fall In Love Too Easily
DR6       -5.22 dB   -12.97 dB      3:28 09-Just In Time
DR6       -5.38 dB   -13.43 dB      3:42 10-I'm Glad I Waited For You
DR6       -5.43 dB   -13.31 dB      3:51 11-It's You Or No One
DR7       -5.50 dB   -14.89 dB      4:17 12-I've Heard That Song Before
--------------------------------------------------------------------------------
Number of tracks:  12
Official DR value: DR7
Samplerate:        2822400 Hz / PCM Samplerate: 88200 Hz
Channels:          2
Bits per sample:   1
Bitrate:           5645 kbps
Codec:             DSD64
================================================================================
По всем вопросам пишите личное сообщение пользователю M0p94ok.
17:26
91
Нет комментариев. Ваш будет первым!