Вы используете незарегистрированную версию компонента "Вкладки"!

Поиск

2020 Alexander Hawkins & Tomeka Reid - Shards and Constellations {Intakt} [24-96]

2020 Alexander Hawkins & Tomeka Reid - Shards and Constellations {Intakt} [24-96]
Дата записи диска:
13 апреля 2019
Место записи:
Challow Park Studios, Oxfordshire, UK
Дата издания диска:
16 апреля 2020
Издатель (лейбл):
Номер по каталогу:
344
Носитель:
WEB
Формат:
PCM
Тип рипа:
tracks
Контейнер:
FLAC (*.flac)
Количество каналов:
2.0
Разрядность/ЧД:
24/96
Битрейт аудио:
lossless
Время звучания:
00:50:59
Наличие сканов:
только обложка
Лог проверки качества
foobar2000 1.6.2 / Dynamic Range Meter 1.1.1
log date: 2021-11-29 13:09:03

--------------------------------------------------------------------------------
Analyzed: Alexander Hawkins & Tomeka Reid / Shards and Constellations
--------------------------------------------------------------------------------

DR         Peak         RMS     Duration Track
--------------------------------------------------------------------------------
DR14      -1.01 dB   -20.85 dB      4:13 01-If Becomes Is
DR14      -0.70 dB   -20.35 dB      3:57 02-Shards and Constellations
DR14      -1.28 dB   -19.12 dB      4:08 03-Danced Together
DR15      -0.88 dB   -24.90 dB      6:13 04-Sung Together
DR11      -0.70 dB   -16.72 dB      9:47 05-Peace On You
DR12      -1.59 dB   -20.28 dB      4:45 06-Strange Familiar
DR14      -0.70 dB   -18.68 dB      4:17 07-A Guess That Deepens
DR17      -4.61 dB   -27.06 dB      3:29 08-Serene and Playful
DR12      -4.10 dB   -22.16 dB      5:05 09-Alber Ayler (His Life Was Too Short)
DR14      -3.05 dB   -26.70 dB      5:05 10-Is Becoms If
--------------------------------------------------------------------------------

Number of tracks:  10
Official DR value: DR14

Samplerate:        96000 Hz
Channels:          2
Bits per sample:   24
Bitrate:           2197 kbps
Codec:             FLAC
================================================================================
Any questions - support@pro-jazz.com. Есть вопросы - support@pro-jazz.com
14:17
81
Нет комментариев. Ваш будет первым!