Поиск

2020 Caktus - Under Solen {Barefoot} [24-48]

2020 Caktus - Under Solen {Barefoot} [24-48]
Место записи:
Christianshavns Beboerhus; Studie 22A; Finlandstudio
Дата издания диска:
2 сентября 2020
Номер по каталогу:
BFREC064
Носитель:
WEB
Формат:
PCM
Тип рипа:
tracks
Контейнер:
FLAC (*.flac)
Количество каналов:
2.0
Разрядность/ЧД:
24/48
Битрейт аудио:
lossless
Наличие сканов:
только обложка

Треклист:

01. Bellahøj Blomster  01:57
02. Stjernepladsen  06:16
03. Skumring ved Degnemosen  05:02
04. I  01:17
05. Stærk Strøm  07:56
06. II  00:24
07. Koldt Dyp  04:05
08. III  01:35
09. Sol Bag Dis  05:26
10. IV  00:55
11. De Bedste  03:26
12. V  01:01
13. Æg og Høne og Due  04:57
14. Bispeengen  04:07

Состав:
  • Maria Dybbroe – alto saxophone
  • Zeki Jindyl– alto saxophone
  • Thorbjørn Kaas – double bass, cello
  • Frederik Hagner – double bass
  • Tobias Andreassen – drums
  • Compositions by Maria Dybbroe
  • Recorded by Jacob Worm and Rasmus Juncker
  • Mixed by Rasmus Juncker
  • Mastered by Taylor Deupree
Доп. инфо:

Дебютный альбом молодого датского джазового 5-тета.

Каждый из двенадцати треков сопровождается стихотворением, написанным разными поэтами. Стихотворение напечатано на внутренней стороне обложки. Поэты: Сигне Сиган, Пиа Тафдруп, Т.С. Хёг, Йенс Эрик Ларсен, Таня Шландер, Йенс Кемпе, Лассе Сонне, Йонатан Бак, Кристиан Сааруп, Ловис Бехманн, Сара Флиндт и Кристиан Хаасе.

Записано вживую в Christianshavns Beboerhus и в студии Vanløse 22A (2019) и Finland Studio (2018).
Выпущен при поддержке Musikpuljen Aarhus Kommune, DJBFA и Koda's Cultural Funds.

Пластинка распространяется на Bandcamp. Цифровая версия содержит два дополнительных трека.

Винил полупрозрачный и закрученный. Сторона A завершается дорожкой "catch".

https://barefootrecords.bandcamp.com/album/under-solen-2

Лог проверки качества
foobar2000 1.6.10 / Dynamic Range Meter 1.1.1
log date: 2022-10-23 17:56:31

--------------------------------------------------------------------------------
Analyzed: Caktus / Under Solen
--------------------------------------------------------------------------------

DR         Peak         RMS     Duration Track
--------------------------------------------------------------------------------
DR10      -1.57 dB   -15.46 dB      1:58 01-Bellahøj Blomster
DR10      -0.51 dB   -13.08 dB      6:17 02-Stjernepladsen
DR11      -0.51 dB   -14.58 dB      5:02 03-Skumring ved Degnemosen
DR14      -2.10 dB   -20.66 dB      1:17 04-I
DR11      -0.51 dB   -14.86 dB      7:56 05-Stærk Strøm
DR10      -1.79 dB   -16.29 dB      0:24 06-II
DR10      -0.51 dB   -13.71 dB      4:06 07-Koldt Dyp
DR13      -0.50 dB   -15.76 dB      1:35 08-III
DR10      -0.52 dB   -14.04 dB      5:27 09-Sol Bag Dis
DR12      -3.57 dB   -21.62 dB      0:56 10-IV
DR9       -2.52 dB   -14.20 dB      3:27 11-De Bedste
DR10      -0.51 dB   -18.85 dB      1:01 12-V
DR11      -0.48 dB   -15.49 dB      4:58 13-Æg og Høne og Due
DR11      -0.52 dB   -15.42 dB      4:08 14-Bispeengen
--------------------------------------------------------------------------------

Number of tracks:  14
Official DR value: DR11

Samplerate:        48000 Hz
Channels:          2
Bits per sample:   24
Bitrate:           1350 kbps
Codec:             FLAC
================================================================================
Download available for power users only.
17:10
92
Нет комментариев. Ваш будет первым!