Поиск

2021 Hasaan Ibn Ali - Metaphysics: The Lost Atlantic Album {Omnivore} [CD]

2021 Hasaan Ibn Ali - Metaphysics: The Lost Atlantic Album {Omnivore} [CD]
Дата записи диска:
23 августа - 7 сентября 1965
Место записи:
Atlantic Recording Studios
Дата издания диска:
5 марта 2021
Номер по каталогу:
OVCD-411
Носитель:
CD
Тип рипа:
tracks+.cue
Аудиокодек:
FLAC (*.flac)
Битрейт аудио:
lossless
Время звучания:
01:03:46
Наличие сканов:
да

Треклист:

01. Atlantic Ones - (05:25)
02. Viceroy - (07:59)
03. El Hasaan - (05:15)
04. Richard May Love Give Powell - (07:12)
05. Metaphysics - (06:30)
06. Epitome - (04:03)
07. True Train - (11:01)
08. True Train (Short Version) - (06:03)
09. Viceroy (Short Version) - (05:28)
10. Atlantic Ones (Short Version) - (04:44)

Состав:
  • Bass – Art Davis
  • Compilation Producer – Alan Sukoenig, Cheryl Pawelski, Patrick Milligan
  • Drums – Kalil Madi
  • Liner Notes – Alan Sukoenig, Lewis Porter
  • Mastered By – Michael Graves (2)
  • Piano, Written-By – Hasaan Ibn Ali
  • Producer – Nesuhi Ertegun
  • Producer [Associate] – Lewis Porter
  • Tenor Saxophone – Odean Pope
Лог создания рипа
X Lossless Decoder version 20210101 (153.1)
XLD extraction logfile from 2021-05-07 11:10:52 +0100
Hasaan Ibn Ali / Metaphysics: The Lost Atlantic Album
Used drive : Apple SuperDrive (revision 2.00)
Media type : Pressed CD
Ripper mode             : XLD Secure Ripper
Disable audio cache     : OK for the drive with a cache less than 1375KiB
Make use of C2 pointers : NO
Read offset correction  : 6
Max retry count         : 20
Gap status              : Analyzed, Appended (except HTOA)
TOC of the extracted CD
     Track |   Start  |  Length  | Start sector | End sector
    ---------------------------------------------------------
        1  | 00:00:00 | 05:25:46 |         0    |    24420
        2  | 05:25:46 | 07:59:54 |     24421    |    60399
        3  | 13:25:25 | 05:15:08 |     60400    |    84032
        4  | 18:40:33 | 07:12:74 |     84033    |   116506
        5  | 25:53:32 | 06:30:74 |    116507    |   145830
        6  | 32:24:31 | 04:03:46 |    145831    |   164101
        7  | 36:28:02 | 11:01:61 |    164102    |   213737
        8  | 47:29:63 | 06:03:58 |    213738    |   241020
        9  | 53:33:46 | 05:28:28 |    241021    |   265648
       10  | 59:01:74 | 04:44:48 |    265649    |   286996
AccurateRip Summary
    Disc not found in AccurateRip DB.
All Tracks
    Album gain               : -4.18 dB
    Peak                     : 0.943909
    Statistics
        Read error                           : 0
        Jitter error (maybe fixed)           : 0
        Retry sector count                   : 0
        Damaged sector count                 : 0
Track 01
    Filename : /Volumes/The External Drive/Music/Rips/Hasaan Ibn Ali - Metaphysics- The Lost Atlantic Album (2021) [FLAC]/01 Atlantic Ones.flac
    Pre-gap length : 00:02:00
    Track gain               : -4.76 dB
    Peak                     : 0.940521
    CRC32 hash (test run)    : 39EC85D9
    CRC32 hash               : 39EC85D9
    CRC32 hash (skip zero)   : E3A92044
    AccurateRip v1 signature : 38990FE1
    AccurateRip v2 signature : 8A7DD549
        ->Track not present in AccurateRip database.
    Statistics
        Read error                           : 0
        Jitter error (maybe fixed)           : 0
        Retry sector count                   : 0
        Damaged sector count                 : 0
Track 02
    Filename : /Volumes/The External Drive/Music/Rips/Hasaan Ibn Ali - Metaphysics- The Lost Atlantic Album (2021) [FLAC]/02 Viceroy.flac
    Track gain               : -4.35 dB
    Peak                     : 0.941956
    CRC32 hash (test run)    : 9DA57A39
    CRC32 hash               : 9DA57A39
    CRC32 hash (skip zero)   : EEA93FF0
    AccurateRip v1 signature : 7656B030
    AccurateRip v2 signature : A8D3D252
        ->Track not present in AccurateRip database.
    Statistics
        Read error                           : 0
        Jitter error (maybe fixed)           : 0
        Retry sector count                   : 0
        Damaged sector count                 : 0
Track 03
    Filename : /Volumes/The External Drive/Music/Rips/Hasaan Ibn Ali - Metaphysics- The Lost Atlantic Album (2021) [FLAC]/03 El Hasaan.flac
    Track gain               : -4.36 dB
    Peak                     : 0.942566
    CRC32 hash (test run)    : D3C074AF
    CRC32 hash               : D3C074AF
    CRC32 hash (skip zero)   : C4EC2EE2
    AccurateRip v1 signature : A595830D
    AccurateRip v2 signature : 4C671CA1
        ->Track not present in AccurateRip database.
    Statistics
        Read error                           : 0
        Jitter error (maybe fixed)           : 0
        Retry sector count                   : 0
        Damaged sector count                 : 0
Track 04
    Filename : /Volumes/The External Drive/Music/Rips/Hasaan Ibn Ali - Metaphysics- The Lost Atlantic Album (2021) [FLAC]/04 Richard May Love Give Powell.flac
    Track gain               : 0.28 dB
    Peak                     : 0.902557
    CRC32 hash (test run)    : 79822861
    CRC32 hash               : 79822861
    CRC32 hash (skip zero)   : 56F17527
    AccurateRip v1 signature : C53E600C
    AccurateRip v2 signature : 9F439C45
        ->Track not present in AccurateRip database.
    Statistics
        Read error                           : 0
        Jitter error (maybe fixed)           : 0
        Retry sector count                   : 0
        Damaged sector count                 : 0
Track 05
    Filename : /Volumes/The External Drive/Music/Rips/Hasaan Ibn Ali - Metaphysics- The Lost Atlantic Album (2021) [FLAC]/05 Metaphysics.flac
    Track gain               : -5.39 dB
    Peak                     : 0.943909
    CRC32 hash (test run)    : 14FADAD1
    CRC32 hash               : 14FADAD1
    CRC32 hash (skip zero)   : E29B742E
    AccurateRip v1 signature : 638EC631
    AccurateRip v2 signature : F64823E1
        ->Track not present in AccurateRip database.
    Statistics
        Read error                           : 0
        Jitter error (maybe fixed)           : 0
        Retry sector count                   : 0
        Damaged sector count                 : 0
Track 06
    Filename : /Volumes/The External Drive/Music/Rips/Hasaan Ibn Ali - Metaphysics- The Lost Atlantic Album (2021) [FLAC]/06 Epitome.flac
    Track gain               : -4.54 dB
    Peak                     : 0.943756
    CRC32 hash (test run)    : EE69C4C5
    CRC32 hash               : EE69C4C5
    CRC32 hash (skip zero)   : 6016EC77
    AccurateRip v1 signature : 77C6A5E7
    AccurateRip v2 signature : CDDDB84F
        ->Track not present in AccurateRip database.
    Statistics
        Read error                           : 0
        Jitter error (maybe fixed)           : 0
        Retry sector count                   : 0
        Damaged sector count                 : 0
Track 07
    Filename : /Volumes/The External Drive/Music/Rips/Hasaan Ibn Ali - Metaphysics- The Lost Atlantic Album (2021) [FLAC]/07 True Train.flac
    Track gain               : -3.35 dB
    Peak                     : 0.918213
    CRC32 hash (test run)    : 35B91D23
    CRC32 hash               : 35B91D23
    CRC32 hash (skip zero)   : 12915AC7
    AccurateRip v1 signature : 1A18C41B
    AccurateRip v2 signature : D50C5D03
        ->Track not present in AccurateRip database.
    Statistics
        Read error                           : 0
        Jitter error (maybe fixed)           : 0
        Retry sector count                   : 0
        Damaged sector count                 : 0
Track 08
    Filename : /Volumes/The External Drive/Music/Rips/Hasaan Ibn Ali - Metaphysics- The Lost Atlantic Album (2021) [FLAC]/08 True Train (Short Version).flac
    Track gain               : -5.32 dB
    Peak                     : 0.942474
    CRC32 hash (test run)    : 58E7B82E
    CRC32 hash               : 58E7B82E
    CRC32 hash (skip zero)   : 25759790
    AccurateRip v1 signature : F9436017
    AccurateRip v2 signature : 61B8C829
        ->Track not present in AccurateRip database.
    Statistics
        Read error                           : 0
        Jitter error (maybe fixed)           : 0
        Retry sector count                   : 0
        Damaged sector count                 : 0
Track 09
    Filename : /Volumes/The External Drive/Music/Rips/Hasaan Ibn Ali - Metaphysics- The Lost Atlantic Album (2021) [FLAC]/09 Viceroy (Short Version).flac
    Track gain               : -1.98 dB
    Peak                     : 0.939850
    CRC32 hash (test run)    : 8B3824F1
    CRC32 hash               : 8B3824F1
    CRC32 hash (skip zero)   : 9450AF2F
    AccurateRip v1 signature : 0D3B1493
    AccurateRip v2 signature : 47619D9E
        ->Track not present in AccurateRip database.
    Statistics
        Read error                           : 0
        Jitter error (maybe fixed)           : 0
        Retry sector count                   : 0
        Damaged sector count                 : 0
Track 10
    Filename : /Volumes/The External Drive/Music/Rips/Hasaan Ibn Ali - Metaphysics- The Lost Atlantic Album (2021) [FLAC]/10 Atlantic Ones (Short Version).flac
    Track gain               : -5.51 dB
    Peak                     : 0.943542
    CRC32 hash (test run)    : 76D66DEF
    CRC32 hash               : 76D66DEF
    CRC32 hash (skip zero)   : 5863FAF6
    AccurateRip v1 signature : 2AEF7DE6
    AccurateRip v2 signature : 3C9361E9
        ->Track not present in AccurateRip database.
    Statistics
        Read error                           : 0
        Jitter error (maybe fixed)           : 0
        Retry sector count                   : 0
        Damaged sector count                 : 0
No errors occurred
End of status report
-----BEGIN XLD SIGNATURE-----
7wiAkKGJDrBs6vLasdn1uL3ZnrmKggPLWxfXLLJ5R1Sb3FTTZHR5NmxlEXX7b9t5qzLD53dgJC0gNC8RMwkFmFQb2aWzKZF5ddT4Wd4
-----END XLD SIGNATURE-----
Download available for power users only.
16:48
113
Нет комментариев. Ваш будет первым!