Вы используете незарегистрированную версию компонента "Вкладки"!

Поиск

2021 Nina Simone - The Montreux Years Live {BMG Rights} [24-44.1]

2021 Nina Simone - The Montreux Years Live {BMG Rights} [24-44.1]
Стили:
Дата издания диска:
25 июня 2021
Издатель (лейбл):
Носитель:
WEB
Формат:
PCM
Тип рипа:
tracks
Контейнер:
FLAC (*.flac)
Количество каналов:
2.0
Разрядность/ЧД:
24/44,1
Битрейт аудио:
lossless
Время звучания:
02:31:06
Наличие сканов:
только обложка
Лог проверки качества
foobar2000 1.4.3 / Dynamic Range Meter 1.1.1
log date: 2021-06-28 21:24:34

--------------------------------------------------------------------------------
Analyzed: Nina Simone / Nina Simone: The Montreux Years
--------------------------------------------------------------------------------

DR         Peak         RMS     Duration Track
--------------------------------------------------------------------------------
DR11      -1.78 dB   -17.82 dB      2:31 01-Someone to Watch Over Me (Intro)  (Live – Montreux Jazz Festival 1987)
DR14      -1.18 dB   -19.81 dB      7:24 02-Backlash Blues  (Live – Montreux Jazz Festival 1976)
DR13      -1.35 dB   -18.74 dB      6:07 03-I Wish I Knew How It Would Feel to Be Free  (Live – Montreux Jazz Festival 1976)
DR13      -1.30 dB   -15.94 dB      4:14 04-See-Line Woman  (Live – Montreux Jazz Festival 1990)
DR14      -1.38 dB   -21.53 dB      6:44 05-Little Girl Blue, Pt. 1 and 2  (Live – Montreux Jazz Festival 1976)
DR13      -1.52 dB   -20.08 dB      4:46 06-Don't Smoke in Bed  (Live – Montreux Jazz Festival 1990)
DR14      -1.35 dB   -21.35 dB      6:38 07-Stars  (Live – Montreux Jazz Festival 1976)
DR11      -1.16 dB   -14.21 dB      4:26 08-What a Little Moonlight Can Do  (Live – Montreux Jazz Festival 1990)
DR10      -1.11 dB   -15.36 dB      6:54 09-African Mailman  (Live – Montreux Jazz Festival 1976)
DR12      -0.20 dB   -14.94 dB      5:31 10-Four Women  (Live – Montreux Jazz Festival 1990)
DR10      -1.48 dB   -13.49 dB      3:57 11-No Woman No Cry  (Live – Montreux Jazz Festival 1990)
DR10      -1.09 dB   -13.64 dB      6:41 12-Liberian Calypso  (Live – Montreux Jazz Festival 1990)
DR12      -3.07 dB   -19.29 dB      5:05 13-Ne Me Quitte Pas  (Live – Montreux Jazz Festival 1990)
DR7       -1.38 dB   -12.91 dB      3:28 14-Montreux Blues  (Live – Montreux Jazz Festival 1981)
DR9       -0.81 dB   -12.71 dB      3:58 15-My Baby Just Cares for Me  (Live – Montreux Jazz Festival 1990)
DR12      -4.81 dB   -20.50 dB      0:24 16-Intro  (Live – Montreux Jazz Festival 1968)
DR11      -0.18 dB   -11.74 dB      3:29 17-Go to Hell  (Live – Montreux Jazz Festival 1968)
DR10      -0.13 dB   -11.18 dB      4:40 18-Just in Time  (Live – Montreux Jazz Festival 1968)
DR10      -0.14 dB   -14.05 dB      4:43 19-When I Was a Young Girl  (Live – Montreux Jazz Festival 1968)
DR10      -0.16 dB   -12.13 dB      4:42 20-Don't Let Me Be Misunderstood  (Live – Montreux Jazz Festival 1968)
DR9       -0.14 dB   -14.43 dB      5:06 21-Ne Me Quitte Pas  (Live – Montreux Jazz Festival 1968)
DR11      -0.13 dB   -13.32 dB      4:21 22-To Love Somebody  (Live – Montreux Jazz Festival 1968)
DR10      -0.14 dB   -12.59 dB      3:54 23-Backlash Blues  (Live – Montreux Jazz Festival 1968)
DR11       0.00 dB   -12.05 dB      7:27 24-The House of the Rising Sun  (Live – Montreux Jazz Festival 1968)
DR11      -0.12 dB   -12.48 dB      4:43 25-See-Line Woman  (Live – Montreux Jazz Festival 1968)
DR10      -0.16 dB   -13.88 dB      3:21 26-Please Read Me  (Live – Montreux Jazz Festival 1968)
DR9       -0.02 dB   -10.63 dB     10:56 27-Ain't Got No, I Got Life  (Live – Montreux Jazz Festival 1968)
DR10      -0.19 dB   -11.78 dB      6:26 28-Gin House Blues  (Live – Montreux Jazz Festival 1968)
DR10      -0.18 dB   -12.17 dB      8:43 29-I Wish I Knew How It Would Feel to Be Free  (Live – Montreux Jazz Festival 1968)
--------------------------------------------------------------------------------

Number of tracks:  29
Official DR value: DR11

Samplerate:        44100 Hz
Channels:          2
Bits per sample:   24
Bitrate:           1510 kbps
Codec:             FLAC
================================================================================
Any questions - support@pro-jazz.com. Есть вопросы - support@pro-jazz.com
11:17
86
Нет комментариев. Ваш будет первым!