Поиск

2022 Clara Lai, Albert Cirera, Ivan Gonzalez, Joan Moll - Creciente {UnderPool} [24-44.1]

2022 Clara Lai, Albert Cirera, Ivan Gonzalez, Joan Moll - Creciente {UnderPool} [24-44.1]
Дата записи диска:
21 июня 2021
Место записи:
Teatre de l'Aurora, Igualada,
Дата издания диска:
14 января 2022
Номер по каталогу:
UNDP-055
Носитель:
WEB
Формат:
PCM
Тип рипа:
tracks
Контейнер:
FLAC (*.flac)
Количество каналов:
2.0
Разрядность/ЧД:
24/44,1
Битрейт аудио:
lossless
Время звучания:
00:43:48
Наличие сканов:
только обложка

Clara Lai

Треклист:

1. Introducción A (Live)  02:30
2. Introducción B (Live)  01:54
3. Nueva (Live)  11:43
4. Creciente (Live)  10:24
5. Llena (Live)  04:39
6. Menguante (Live)  02:19
7. Epílogo (Live)  10:17

Состав:
  • Clara Lai — Piano & Composition
  • Albert Cirera — Tenor Sax
  • Iván González — Trumpet
  • Joan Moll — Drums
  • Recorded by Adrià Serrano & Sergi Felipe
  • Mixed and Mastered by Adrià Serrano.
  • Produced by UnderPool
Доп. инфо:

Creciente - это результат творческого процесса, в котором Клара Лаи исследует композицию новых звуковых текстур, тембров и цветов, бросающих вызов границам установленного языка.

Эта работа над композиционным процессом определяет музыкальную вселенную автора. На протяжении многих лет она непрерывно работала над укреплением своего собственного незакомплексованного голоса, который, в свою очередь, значительно обогатил современную музыкальную панораму.

В альбоме соблюден баланс между импровизацией и композицией; в нем звучат голоса Альберта Сиреры, Ивана Гонсалеса и Жоана Молла, которые вносят свои личные черты в единое целое; в результате получается единое абстрактное видение, которое завораживает слушателя.

Музыка Клары Лаи становится зеркалом, в котором человек узнает свои собственные эмоции, и где современные формы открывают новые, еще не открытые горизонты".

Обложка альбома выполнена художницей Аной Эскар.

Лог проверки качества
foobar2000 1.4.2 / Dynamic Range Meter 1.1.1
log date: 2022-01-15 21:57:28
--------------------------------------------------------------------------------
Analyzed: Clara Lai / Creciente
--------------------------------------------------------------------------------
DR         Peak         RMS     Duration Track
--------------------------------------------------------------------------------
DR16      -0.10 dB   -19.24 dB      2:30 1/7-IntroduccioМЃn A
DR14      -5.71 dB   -28.05 dB      1:55 2/7-IntroduccioМЃn B
DR15       0.00 dB   -19.56 dB     11:43 3/7-Nueva
DR13      -0.90 dB   -19.07 dB     10:24 4/7-Creciente
DR13      -0.40 dB   -16.04 dB      4:40 5/7-Llena
DR16      -0.50 dB   -21.66 dB      2:20 6/7-Menguante
DR14       0.00 dB   -18.67 dB     10:17 7/7-EpiМЃlogo
--------------------------------------------------------------------------------
Number of tracks:  7
Official DR value: DR14
Samplerate:        44100 Hz
Channels:          2
Bits per sample:   24
Bitrate:           1297 kbps
Codec:             FLAC
================================================================================
Download available for power users only.
16:55
145
Нет комментариев. Ваш будет первым!