Поиск

2022 John Hebert - Sounds of Love {Sunnyside} [24-44.1]

2022 John Hebert - Sounds of Love {Sunnyside} [24-44.1]
Стили:
Дата записи диска:
27 марта 2013
Место записи:
Jazz In Bess, Lugano, Switzerland
Дата издания диска:
14 января 2022
Издатель (лейбл):
Номер по каталогу:
SSC 1646
Носитель:
WEB
Формат:
PCM
Тип рипа:
tracks
Контейнер:
FLAC (*.flac)
Количество каналов:
2.0
Разрядность/ЧД:
24/44,1
Битрейт аудио:
lossless
Наличие сканов:
только обложка

1. Constrictor  10:03
2. The Blank-Faced Man  08:32
3. Duke Ellington's Sounds of Love  12:31
4. Love What?  06:55
5. Remember Rockfeller at Attica  09:17
6. Frivolocity  04:31

Состав:
  •     Alto Saxophone – Tim Berne
  •     Bass – John Hébert*
  •     Cornet – Taylor Ho Bynum
  •     Drums, Percussion – Ches Smith
  •     Piano – Fred Hersch
Лог проверки качества
foobar2000 1.4.2 / Dynamic Range Meter 1.1.1
log date: 2022-01-15 16:43:12
--------------------------------------------------------------------------------
Analyzed: John Hebert / Sounds of Love
--------------------------------------------------------------------------------
DR         Peak         RMS     Duration Track
--------------------------------------------------------------------------------
DR16      -0.50 dB   -20.79 dB     10:03 01-Constrictor
DR18      -0.50 dB   -23.53 dB      8:33 02-The Blank-Faced Man
DR16      -0.50 dB   -23.09 dB     12:32 03-Duke Ellington's Sounds of Love
DR16      -0.50 dB   -20.09 dB      6:55 04-Love What?
DR16      -0.50 dB   -19.48 dB      9:18 05-Remember Rockfeller at Attica
DR16      -0.50 dB   -19.35 dB      4:32 06-Frivolocity
--------------------------------------------------------------------------------
Number of tracks:  6
Official DR value: DR16
Samplerate:        44100 Hz
Channels:          2
Bits per sample:   24
Bitrate:           1426 kbps
Codec:             FLAC
================================================================================
Скачивание доступно после регистрации!!
Приватный:
Нет (DHT включён)
Размер:
504.56 Мб (529,065,524 байт) » файлов: 7
Участники:
0 раздают, 0 качают (0 участников всего)
Внешние участники:
5 раздают, 1 качают (6 участников всего) [ Обновить ]
14:43
379
Нет комментариев. Ваш будет первым!