Поиск

2022 Mike Holober & Balancing Act - Don't Let Go {Sunnyside} [24-96]

2022 Mike Holober & Balancing Act - Don't Let Go {Sunnyside} [24-96]
Стили:
Дата издания диска:
15 апреля 2022
Издатель (лейбл):
Носитель:
WEB
Формат:
PCM
Тип рипа:
tracks
Контейнер:
FLAC (*.flac)
Количество каналов:
2.0
Разрядность/ЧД:
24/96
Битрейт аудио:
lossless
Наличие сканов:
только обложка

01. Breathe Deep (02:10)
02. Morning Hope (09:20)
03. Four-Letter Words (09:10)
04. Kiss The Ground (05:33)
05. Burnin’ Daylight (07:11)
06. A Summer Midnight's Dream (04:56)
07. Necessary (06:55)
08. I Wonder (06:28)
09. You’re a Long Way From Home (05:53)
10. You Never Know (05:59)
11. Smile Slow (02:36)
12. Letting Go (08:12)
13. Touch The Sky (09:03)
14. Don’t Let Go (04:29)

Состав:
  • Jamile, voice
  • Marvin Stamm, trumpet & flugelhorn
  • Dick Oatts, alto, soprano saxophone, flute
  • Jason Rigby, tenor saxophone, clarinet, bass clarinet
  • Mark Patterson, trombone
  • Mike Holober, piano & composer
  • Mike McGuirk, bass
  • Dennis Mackrel, drums
Лог проверки качества
foobar2000 1.6.6 / Dynamic Range Meter 1.1.1
log date: 2022-04-15 18:19:02
--------------------------------------------------------------------------------
Analyzed: Mike Holober & Balancing Act / Don't Let Go
--------------------------------------------------------------------------------
DR         Peak         RMS     Duration Track
--------------------------------------------------------------------------------
DR11      -8.28 dB   -25.03 dB      2:10 01-Breathe Deep
DR13      -1.30 dB   -17.73 dB      9:20 02-Morning Hope
DR12      -1.30 dB   -16.08 dB      9:10 03-Four-Letter Words
DR13      -1.30 dB   -15.45 dB      5:33 04-Kiss The Ground
DR12      -1.30 dB   -17.95 dB      7:11 05-Burnin’ Daylight
DR13      -1.30 dB   -18.95 dB      4:56 06-A Summer Midnight's Dream
DR13      -1.30 dB   -16.12 dB      6:55 07-Necessary
DR11      -1.28 dB   -15.25 dB      6:28 08-I Wonder
DR12      -1.28 dB   -16.00 dB      5:53 09-You’re a Long Way From Home
DR13      -2.19 dB   -18.37 dB      5:59 10-You Never Know
DR12      -5.67 dB   -22.75 dB      2:36 11-Smile Slow
DR11      -1.28 dB   -15.18 dB      8:12 12-Letting Go
DR12      -1.28 dB   -15.98 dB      9:03 13-Touch The Sky
DR13      -1.28 dB   -19.61 dB      4:29 14-Don’t Let Go
--------------------------------------------------------------------------------
Number of tracks:  14
Official DR value: DR12
Samplerate:        96000 Hz
Channels:          2
Bits per sample:   24
Bitrate:           2394 kbps
Codec:             FLAC
================================================================================
Скачивание доступно после регистрации!!
Приватный:
Нет (DHT включён)
Размер:
1.61 Гб (1,733,135,034 байт) » файлов: 16
Участники:
0 раздают, 0 качают (0 участников всего)
Внешние участники:
2 раздают, 1 качают (3 участников всего) [ Обновить ]
10:01
410
Нет комментариев. Ваш будет первым!