Поиск

(Accordeon, World Fusion) Richard Galliano New York Trio - Ruby, My Dear - 2005, APE (image+.cue), lossless

Треклист:
Richard Galliano New York Trio - Ruby, My Dear

Жанр: Accordeon
Год выпуска диска: 2005
Аудио кодек: APE
Тип рипа: image+.cue
Битрейт аудио: lossless
Продолжительность: 54:00
Трэклист:
1. Ruby, My Dear (Monk)
2. L'insidieuse (Galliano)
3. Historia De Un Amor (Eleta)
4. Bohemia After Dark (Pettiford)
5. Gnosseinne No.1 (Satie)
6. Teulada (Galliano)
7. Naïa (Galliano)
8. Spleen (Galliano)
9. Walts For Nicky (Galliano)
 
Отчёт EAC
Exact Audio Copy V0.99 prebeta 4 from 23. January 2008
Отчёт EAC об извлечении, выполненном 21. января 2009, 1:59
Richard Galliano New York Trio / Ruby, My Dear
Дисковод: TEAC CD-W552G Adapter: 2 ID: 1
Режим чтения : Достоверность
Использование точного потока : Да
Отключение кэша аудио : Да
Использование указателей C2 : Нет
Коррекция смещения при чтении : 6
Способность читать области Lead-in и Lead-out : Нет
Заполнение пропущенных сэмплов тишиной : Да
Удаление блоков с тишиной в начале и конце : Нет
При вычислениях CRC использовались нулевые сэмплы : Нет
Интерфейс : Установленный внешний ASPI-интерфейс
Выходной формат : Внутренние WAV-операции
Формат сэмплов : 44.100 Гц; 16 бит; стерео
TOC извлечённого CD
Трек | Старт | Длительность | Начальный сектор | Конечный сектор
---------------------------------------------------------------------
1 | 0:00.00 | 4:51.28 | 0 | 21852
2 | 4:51.28 | 5:09.57 | 21853 | 45084
3 | 10:01.10 | 5:16.05 | 45085 | 68789
4 | 15:17.15 | 5:57.31 | 68790 | 95595
5 | 21:14.46 | 5:46.22 | 95596 | 121567
6 | 27:00.68 | 4:31.36 | 121568 | 141928
7 | 31:32.29 | 6:18.14 | 141929 | 170292
8 | 37:50.43 | 8:33.58 | 170293 | 208825
9 | 46:24.26 | 7:54.61 | 208826 | 244436
Характеристики диапазона извлечения и сообщения об ошибках
Выбранный диапазон
Имя файла W:\Музыка\Разное\Lossless\jazz rutracker.org\Richard Galliano New York Trio - Ruby, My Dear\Richard Galliano New York Trio - Ruby, My Dear.wav
Пиковый уровень 100.0 %
Качество диапазона 99.9 %
CRC копии 6D1FC2B8
Копирование... OK
Ошибок не произошло
Конец отчёта
По всем вопросам пишите личное сообщение пользователю M0p94ok.
04:24
380
Нет комментариев. Ваш будет первым!