Поиск

(Afro-Cuban Jazz / Post-Bop) Herbie Mann - At The Village Gate (1964) - ?, FLAC (tracks+.cue), lossless

(Afro-Cuban Jazz / Post-Bop) Herbie Mann - At The Village Gate (1964) - ?, FLAC (tracks+.cue), lossless
Треклист:
Herbie Mann - At The Village Gate
Жанр: Afro-Cuban Jazz / Post-Bop
Год выпуска диска: ?
Производитель диска: Atlantic (8122765952)
Аудио кодек: FLAC
Тип рипа: tracks+.cue
Битрейт аудио: lossless
Продолжительность: 0:38:58
Трэклист:
01. Comin' Home Baby (8:39)
02. Summertime (10:23)
03. It Ain't Necessarily So (19:55)
Herbie Mann - flutes
Hagood Hardy - vibraharp
Ahmed Abdul-Malik - bass
Ben Tucker - bass (#1 only)
Ray Mantilla - conga drum, percussion
Chief Bey - african drum. percussion
Rudy Collins - drums
Recorded at the Village Gate in New York, 1964 ( or? 1962)
За рип спасибо tdelyon
 
EAC Log
Exact Audio Copy V0.99 prebeta 4 from 23. January 2008
EAC extraction logfile from 5. March 2009, 17:38
Herbie Mann / At The Village Gate
Used drive : PHILIPS SPD3400CC Adapter: 3 ID: 1
Read mode : Secure
Utilize accurate stream : Yes
Defeat audio cache : Yes
Make use of C2 pointers : No
Read offset correction : 6
Overread into Lead-In and Lead-Out : No
Fill up missing offset samples with silence : Yes
Delete leading and trailing silent blocks : No
Null samples used in CRC calculations : Yes
Used interface : Installed external ASPI interface
Gap handling : Appended to previous track
Used output format : User Defined Encoder
Selected bitrate : 768 kBit/s
Quality : High
Add ID3 tag : No
Command line compressor : C:\Program Files\Exact Audio Copy\FLAC\FLAC.EXE
Additional command line options : -6 -V -T "ARTIST=%a" -T "TITLE=%t" -T "ALBUM=%g" -T "DATE=%y" -T "TRACKNUMBER=%n" -T "GENRE=%m" -T "COMMENT=%e" %s -o %d
TOC of the extracted CD
Track | Start | Length | Start sector | End sector
---------------------------------------------------------
1 | 0:00.00 | 8:38.55 | 0 | 38904
2 | 8:38.55 | 10:23.32 | 38905 | 85661
3 | 19:02.12 | 19:55.35 | 85662 | 175321
Track 1
Filename C:\Herbie Mann - At The Village Gate\01 - Comin' Home Baby.wav
Pre-gap length 0:00:02.00
Peak level 89.1 %
Track quality 100.0 %
Test CRC 9712A4DE
Copy CRC 9712A4DE
Accurately ripped (confidence 2) [0EB3C932]
Copy OK
Track 2
Filename C:\Herbie Mann - At The Village Gate\02 - Summertime.wav
Pre-gap length 0:00:02.76
Peak level 89.1 %
Track quality 100.0 %
Test CRC 17F2EE2E
Copy CRC 17F2EE2E
Accurately ripped (confidence 2) [1FF17BDD]
Copy OK
Track 3
Filename C:\Herbie Mann - At The Village Gate\03 - It Ain't Necessarily So.wav
Pre-gap length 0:00:02.66
Peak level 89.1 %
Track quality 100.0 %
Test CRC 67677936
Copy CRC 67677936
Accurately ripped (confidence 2) [8C13298B]
Copy OK
All tracks accurately ripped
No errors occurred
End of status report
 
Cue
REM GENRE Jazz
REM DATE 1964
REM DISCID 13092103
REM COMMENT "ExactAudioCopy v0.99pb4"
CATALOG 0081227659523
PERFORMER "Herbie Mann"
TITLE "At The Village Gate"
FILE "01 - Comin' Home Baby.wav" WAVE
TRACK 01 AUDIO
TITLE "Comin' Home Baby"
PERFORMER "Herbie Mann"
ISRC USAT20105891
INDEX 01 00:00:00
TRACK 02 AUDIO
TITLE "Summertime"
PERFORMER "Herbie Mann"
ISRC USAT20106477
INDEX 00 08:35:73
FILE "02 - Summertime.wav" WAVE
INDEX 01 00:00:00
TRACK 03 AUDIO
TITLE "It Ain't Necessarily So"
PERFORMER "Herbie Mann"
ISRC USAT20106478
INDEX 00 10:20:57
FILE "03 - It Ain't Necessarily So.wav" WAVE
INDEX 01 00:00:00
Download available for power users only.
15:03
297
Нет комментариев. Ваш будет первым!