Вы используете незарегистрированную версию компонента "Вкладки"!

Поиск

(Avant-Garde Jazz, Experimental Big Band) [CD] Sun Ra and The Arkestra - Sound of Joy - 1957 (2003 Japan Edition), FLAC (tracks+.cue), lossless

(Avant-Garde Jazz, Experimental Big Band) [CD] Sun Ra and The Arkestra - Sound of Joy - 1957 (2003 Japan Edition), FLAC (tracks+.cue), lossless
Треклист:
Sun Ra and The Arkestra - Sound of Joy
Жанр: Avant-Garde Jazz, Experimental Big Band
Носитель: CD
Страна-производитель диска (релиза): Япония
Год издания: 2003
Издатель (лейбл): P-Vine/Delmark
Номер по каталогу: PCD-22038
Страна исполнителя (группы): США
Аудиокодек: FLAC (*.flac)
Тип рипа: tracks+.cue
Битрейт аудио: lossless
Продолжительность: 47:43
Источник (релизер): FelixClown (what)
Наличие сканов в содержимом раздачи: нет
Треклист:
01. El Is a Sound of Joy (Sun Ra) - 4:05
02. Overtones of China (Sun Ra) - 3:25
03. Two Tones (Patrick-Davis) - 3:41
04. Paradise (Sun Ra) - 4:30
05. Planet Earth (Sun Ra) - 4:24
06. Ankh (Sun Ra) - 6:31
07. Saturn (Sun Ra) - 4:01
08. Reflections in Blue (Sun Ra) - 6:22
09. El Viktor (Sun Ra) - 2:33
10. As You Once Were (Sun Ra) - 4:20
11. Dreams Come True (Sun Ra) - 3:51
 
Лог создания рипа
X Lossless Decoder version 20160920 (149.2)
XLD extraction logfile from 2016-10-15 09:15:33 -0400
Sun Ra / Sound Of Joy
Used drive : Apple SuperDrive (revision 2.00)
Media type : Pressed CD
Ripper mode : XLD Secure Ripper
Disable audio cache : OK for the drive with a cache less than 1375KiB
Make use of C2 pointers : NO
Read offset correction : 6
Max retry count : 20
Gap status : Analyzed, Appended (except HTOA)
TOC of the extracted CD
Track | Start | Length | Start sector | End sector
---------------------------------------------------------
1 | 00:00:00 | 04:04:52 | 0 | 18351
2 | 04:04:52 | 03:24:40 | 18352 | 33691
3 | 07:29:17 | 03:41:03 | 33692 | 50269
4 | 11:10:20 | 04:30:07 | 50270 | 70526
5 | 15:40:27 | 04:24:18 | 70527 | 90344
6 | 20:04:45 | 06:31:05 | 90345 | 119674
7 | 26:35:50 | 04:00:42 | 119675 | 137716
8 | 30:36:17 | 06:21:38 | 137717 | 166329
9 | 36:57:55 | 02:33:02 | 166330 | 177806
10 | 39:30:57 | 04:20:08 | 177807 | 197314
11 | 43:50:65 | 03:51:32 | 197315 | 214671
AccurateRip Summary (DiscID: 00137b1e-00aad0e4-920b2e0b)
Track 01 : OK (v2, confidence 1/2)
Track 02 : OK (v2, confidence 1/2)
Track 03 : OK (v2, confidence 1/2)
Track 04 : OK (v2, confidence 1/2)
Track 05 : OK (v2, confidence 1/2)
Track 06 : OK (v2, confidence 1/2)
Track 07 : OK (v2, confidence 1/2)
Track 08 : OK (v2, confidence 1/2)
Track 09 : OK (v2, confidence 1/2)
Track 10 : OK (v2, confidence 1/2)
Track 11 : OK (v2, confidence 1/2)
->All tracks accurately ripped.
All Tracks
Album gain : -5.51 dB
Peak : 0.999878
Statistics
Read error : 0
Jitter error (maybe fixed) : 0
Retry sector count : 0
Damaged sector count : 0
Track 01
Filename : /Volumes/What Complete BU/Apple Lossless Conversions/Sun Ra- Sound Of Joy (1957) [FLAC] /01 - Sun Ra - El Is A Sound Of Joy.flac
Pre-gap length : 00:02:00
Track gain : -5.32 dB
Peak : 0.991058
CRC32 hash (test run) : 1870AEAB
CRC32 hash : 1870AEAB
CRC32 hash (skip zero) : 2EC3D505
AccurateRip v1 signature : 078B8373
AccurateRip v2 signature : 0ADE2052
->Accurately ripped (v2, confidence 1/2)
Statistics
Read error : 0
Jitter error (maybe fixed) : 0
Retry sector count : 0
Damaged sector count : 0
Track 02
Filename : /Volumes/What Complete BU/Apple Lossless Conversions/Sun Ra- Sound Of Joy (1957) [FLAC] /02 - Sun Ra - Overtones Of China.flac
Pre-gap length : 00:04:65
Track gain : -5.26 dB
Peak : 0.991058
CRC32 hash (test run) : DA0316B0
CRC32 hash : DA0316B0
CRC32 hash (skip zero) : 097EF4EC
AccurateRip v1 signature : 42140943
AccurateRip v2 signature : B94AB636
->Accurately ripped (v2, confidence 1/2)
Statistics
Read error : 0
Jitter error (maybe fixed) : 0
Retry sector count : 0
Damaged sector count : 0
Track 03
Filename : /Volumes/What Complete BU/Apple Lossless Conversions/Sun Ra- Sound Of Joy (1957) [FLAC] /03 - Sun Ra - Two Tones.flac
Pre-gap length : 00:02:62
Track gain : -5.69 dB
Peak : 0.996796
CRC32 hash (test run) : 2EA7B17A
CRC32 hash : 2EA7B17A
CRC32 hash (skip zero) : 1A6A1C04
AccurateRip v1 signature : C8BCC83F
AccurateRip v2 signature : 857ACCB2
->Accurately ripped (v2, confidence 1/2)
Statistics
Read error : 0
Jitter error (maybe fixed) : 0
Retry sector count : 0
Damaged sector count : 0
Track 04
Filename : /Volumes/What Complete BU/Apple Lossless Conversions/Sun Ra- Sound Of Joy (1957) [FLAC] /04 - Sun Ra - Paradise.flac
Pre-gap length : 00:02:63
Track gain : -2.99 dB
Peak : 0.999115
CRC32 hash (test run) : CFC5B54F
CRC32 hash : CFC5B54F
CRC32 hash (skip zero) : FAC3E314
AccurateRip v1 signature : 174E9B2E
AccurateRip v2 signature : E45E2C4A
->Accurately ripped (v2, confidence 1/2)
Statistics
Read error : 0
Jitter error (maybe fixed) : 0
Retry sector count : 0
Damaged sector count : 0
Track 05
Filename : /Volumes/What Complete BU/Apple Lossless Conversions/Sun Ra- Sound Of Joy (1957) [FLAC] /05 - Sun Ra - Planet Earth.flac
Pre-gap length : 00:02:57
Track gain : -5.21 dB
Peak : 0.999115
CRC32 hash (test run) : B92902B4
CRC32 hash : B92902B4
CRC32 hash (skip zero) : 5D3DF2C4
AccurateRip v1 signature : 37D7AC26
AccurateRip v2 signature : E0E2F254
->Accurately ripped (v2, confidence 1/2)
Statistics
Read error : 0
Jitter error (maybe fixed) : 0
Retry sector count : 0
Damaged sector count : 0
Track 06
Filename : /Volumes/What Complete BU/Apple Lossless Conversions/Sun Ra- Sound Of Joy (1957) [FLAC] /06 - Sun Ra - Ankh.flac
Pre-gap length : 00:03:00
Track gain : -3.20 dB
Peak : 0.979675
CRC32 hash (test run) : 420D5E4D
CRC32 hash : 420D5E4D
CRC32 hash (skip zero) : B63138F5
AccurateRip v1 signature : E203CFAC
AccurateRip v2 signature : 9E391C33
->Accurately ripped (v2, confidence 1/2)
Statistics
Read error : 0
Jitter error (maybe fixed) : 0
Retry sector count : 0
Damaged sector count : 0
Track 07
Filename : /Volumes/What Complete BU/Apple Lossless Conversions/Sun Ra- Sound Of Joy (1957) [FLAC] /07 - Sun Ra - Saturn.flac
Pre-gap length : 00:02:50
Track gain : -6.76 dB
Peak : 0.996796
CRC32 hash (test run) : 8EE6F249
CRC32 hash : 8EE6F249
CRC32 hash (skip zero) : 61F24955
AccurateRip v1 signature : FF08F89A
AccurateRip v2 signature : 7A740CCC
->Accurately ripped (v2, confidence 1/2)
Statistics
Read error : 0
Jitter error (maybe fixed) : 0
Retry sector count : 0
Damaged sector count : 0
Track 08
Filename : /Volumes/What Complete BU/Apple Lossless Conversions/Sun Ra- Sound Of Joy (1957) [FLAC] /08 - Sun Ra - Reflections In Blue.flac
Pre-gap length : 00:02:35
Track gain : -6.01 dB
Peak : 0.999878
CRC32 hash (test run) : 7A3D4F9F
CRC32 hash : 7A3D4F9F
CRC32 hash (skip zero) : 7D29D3D0
AccurateRip v1 signature : F7FEE19E
AccurateRip v2 signature : F2A4E9A7
->Accurately ripped (v2, confidence 1/2)
Statistics
Read error : 0
Jitter error (maybe fixed) : 0
Retry sector count : 0
Damaged sector count : 0
Track 09
Filename : /Volumes/What Complete BU/Apple Lossless Conversions/Sun Ra- Sound Of Joy (1957) [FLAC] /09 - Sun Ra - El Viktor.flac
Pre-gap length : 00:02:40
Track gain : -6.23 dB
Peak : 0.988770
CRC32 hash (test run) : 8E11B6FE
CRC32 hash : 8E11B6FE
CRC32 hash (skip zero) : C82A3365
AccurateRip v1 signature : 7DEA2698
AccurateRip v2 signature : 425F530E
->Accurately ripped (v2, confidence 1/2)
Statistics
Read error : 0
Jitter error (maybe fixed) : 0
Retry sector count : 0
Damaged sector count : 0
Track 10
Filename : /Volumes/What Complete BU/Apple Lossless Conversions/Sun Ra- Sound Of Joy (1957) [FLAC] /10 - Sun Ra - As You Once Were.flac
Pre-gap length : 00:02:67
Track gain : -5.12 dB
Peak : 0.995697
CRC32 hash (test run) : D5014861
CRC32 hash : D5014861
CRC32 hash (skip zero) : 4AC97ECF
AccurateRip v1 signature : 42D31C6E
AccurateRip v2 signature : 035F4E62
->Accurately ripped (v2, confidence 1/2)
Statistics
Read error : 0
Jitter error (maybe fixed) : 0
Retry sector count : 0
Damaged sector count : 0
Track 11
Filename : /Volumes/What Complete BU/Apple Lossless Conversions/Sun Ra- Sound Of Joy (1957) [FLAC] /11 - Sun Ra - Dreams Come True.flac
Pre-gap length : 00:02:70
Track gain : -5.45 dB
Peak : 0.988770
CRC32 hash (test run) : FC825734
CRC32 hash : FC825734
CRC32 hash (skip zero) : 2E6EF993
AccurateRip v1 signature : 0F165B60
AccurateRip v2 signature : F12BCE9E
->Accurately ripped (v2, confidence 1/2)
Statistics
Read error : 0
Jitter error (maybe fixed) : 0
Retry sector count : 0
Damaged sector count : 0
No errors occurred
End of status report
-----BEGIN XLD SIGNATURE-----
itrpzzcyRY4p_C_tIVQ4xX5mydtLYaVhGpDg5YRHC71xcqoRR0MH0fLGnCZ0xKfPqDTZFUE.61ro1I724.yikkxyCXO32O6hWmSihdi
-----END XLD SIGNATURE-----
 
Содержание индексной карты (.CUE)
TITLE "Sound of Joy"
PERFORMER "Sun Ra"
CATALOG 4995879220382
REM GENRE "Jazz"
REM DATE "1957"
REM DISCID 920B2E0B
REM REPLAYGAIN_ALBUM_GAIN -5.51 dB
REM REPLAYGAIN_ALBUM_PEAK 0.999878
FILE "01 - El Is a Sound of Joy.flac" WAVE
TRACK 01 AUDIO
TITLE "El Is a Sound of Joy"
REM REPLAYGAIN_TRACK_GAIN -5.32 dB
REM REPLAYGAIN_TRACK_PEAK 0.991058
INDEX 01 00:00:00
TRACK 02 AUDIO
TITLE "Overtones of China"
REM REPLAYGAIN_TRACK_GAIN -5.26 dB
REM REPLAYGAIN_TRACK_PEAK 0.991058
INDEX 00 03:59:62
FILE "02 - Overtones of China.flac" WAVE
INDEX 01 00:00:00
TRACK 03 AUDIO
TITLE "Two Tones"
REM REPLAYGAIN_TRACK_GAIN -5.69 dB
REM REPLAYGAIN_TRACK_PEAK 0.996796
INDEX 00 03:21:53
FILE "03 - Two Tones.flac" WAVE
INDEX 01 00:00:00
TRACK 04 AUDIO
TITLE "Paradise"
REM REPLAYGAIN_TRACK_GAIN -2.99 dB
REM REPLAYGAIN_TRACK_PEAK 0.999115
INDEX 00 03:38:15
FILE "04 - Paradise.flac" WAVE
INDEX 01 00:00:00
TRACK 05 AUDIO
TITLE "Planet Earth"
REM REPLAYGAIN_TRACK_GAIN -5.21 dB
REM REPLAYGAIN_TRACK_PEAK 0.999115
INDEX 00 04:27:25
FILE "05 - Planet Earth.flac" WAVE
INDEX 01 00:00:00
TRACK 06 AUDIO
TITLE "Ankh"
REM REPLAYGAIN_TRACK_GAIN -3.20 dB
REM REPLAYGAIN_TRACK_PEAK 0.979675
INDEX 00 04:21:18
FILE "06 - Ankh.flac" WAVE
INDEX 01 00:00:00
TRACK 07 AUDIO
TITLE "Saturn"
REM REPLAYGAIN_TRACK_GAIN -6.76 dB
REM REPLAYGAIN_TRACK_PEAK 0.996796
INDEX 00 06:28:30
FILE "07 - Saturn.flac" WAVE
INDEX 01 00:00:00
TRACK 08 AUDIO
TITLE "Reflections in Blue"
REM REPLAYGAIN_TRACK_GAIN -6.01 dB
REM REPLAYGAIN_TRACK_PEAK 0.999878
INDEX 00 03:58:07
FILE "08 - Reflections in Blue.flac" WAVE
INDEX 01 00:00:00
TRACK 09 AUDIO
TITLE "El Viktor"
REM REPLAYGAIN_TRACK_GAIN -6.23 dB
REM REPLAYGAIN_TRACK_PEAK 0.988770
INDEX 00 06:18:73
FILE "09 - El Viktor.flac" WAVE
INDEX 01 00:00:00
TRACK 10 AUDIO
TITLE "As You Once Were"
REM REPLAYGAIN_TRACK_GAIN -5.12 dB
REM REPLAYGAIN_TRACK_PEAK 0.995697
INDEX 00 02:30:10
FILE "10 - As You Once Were.flac" WAVE
INDEX 01 00:00:00
TRACK 11 AUDIO
TITLE "Dreams Come True"
REM REPLAYGAIN_TRACK_GAIN -5.45 dB
REM REPLAYGAIN_TRACK_PEAK 0.988770
INDEX 00 04:17:13
FILE "11 - Dreams Come True.flac" WAVE
INDEX 01 00:00:00
 
Отчет CUETools
[CUETools log; Date: 16.10.2016 19:51:44; Version: 2.1.5]
[CTDB TOCID: J_GBB4Dgg2RvGc3UKo5srU9rvx0-] found.
Track | CTDB Status
1 | (1/1) Accurately ripped
2 | (1/1) Accurately ripped
3 | (1/1) Accurately ripped
4 | (1/1) Accurately ripped
5 | (1/1) Accurately ripped
6 | (1/1) Accurately ripped
7 | (1/1) Accurately ripped
8 | (1/1) Accurately ripped
9 | (1/1) Accurately ripped
10 | (1/1) Accurately ripped
11 | (1/1) Accurately ripped
[AccurateRip ID: 00137b1e-00aad0e4-920b2e0b] found.
Track [ CRC | V2 ] Status
01 [078b8373|0ade2052] (0+1/2) Accurately ripped
02 [42140943|b94ab636] (0+1/2) Accurately ripped
03 [c8bcc83f|857accb2] (0+1/2) Accurately ripped
04 [174e9b2e|e45e2c4a] (0+1/2) Accurately ripped
05 [37d7ac26|e0e2f254] (0+1/2) Accurately ripped
06 [e203cfac|9e391c33] (0+1/2) Accurately ripped
07 [ff08f89a|7a740ccc] (0+1/2) Accurately ripped
08 [f7fee19e|f2a4e9a7] (0+1/2) Accurately ripped
09 [7dea2698|425f530e] (0+1/2) Accurately ripped
10 [42d31c6e|035f4e62] (0+1/2) Accurately ripped
11 [0f165b60|f12bce9e] (0+1/2) Accurately ripped
Track Peak [ CRC32 ] [W/O NULL]
-- 99,9 [68DCD8B2] [26A8DA56]
01 99,1 [1870AEAB] [2EC3D505]
02 99,1 [DA0316B0] [097EF4EC]
03 99,6 [2EA7B17A] [1A6A1C04]
04 99,9 [CFC5B54F] [FAC3E314]
05 99,9 [B92902B4] [5D3DF2C4]
06 97,9 [420D5E4D] [B63138F5]
07 99,6 [8EE6F249] [61F24955]
08 99,9 [7A3D4F9F] [7D29D3D0]
09 98,8 [8E11B6FE] [C82A3365]
10 99,5 [D5014861] [4AC97ECF]
11 98,8 [FC825734] [2E6EF993]
 
AllMusic Review by Scott Yanow
This reissue, prior to the release of many of Sun Ra's Saturn albums on Evidence CDs, was often thought of as Ra's second recording although now several earlier dates have appeared. The music from Sun Ra's Chicago-based band of the 1950s (some of the same tunes, but different performances, also appear on Evidence's Planet Earth/Low Ways) is quite interesting for its ties to the bop and swing traditions are much more obvious than it would be in the near future. Ra's eccentric piano and occasional electric keyboard look forward as do some of the harmonies and Jim Herndon's colorful tympani. Two previously unissued cuts (other versions of which have also surfaced on an Evidence set) augment the original LP program.
 
Состав
Sun Ra - piano, electric piano
Art Hoyle, Dave Young - trumpets
Julian Priester - trombone
Pat Patrick - alto saxophone, baritone saxophone
John Gilmore - tenor saxophone
Charles Davis - baritone saxophone
Victor Sproles - bass
William Cochran - drums
Jim Herndon - tympani, timbali
Clyde Williams - vocals
Recorded in November 1957.
По всем вопросам пишите личное сообщение пользователю M0p94ok.
22:00
289
Нет комментариев. Ваш будет первым!