Поиск

(Big Band) Count Basie — Verve Jazz Masters 2 - 1993, FLAC (tracks+.cue), lossless

(Big Band) Count Basie — Verve Jazz Masters 2 - 1993, FLAC (tracks+.cue), lossless
Треклист:
Count Basie — Verve Jazz Masters 2
Жанр: Big Band
Год выпуска диска: 1993
Label: Verve
Аудио кодек: FLAC
Тип рипа: tracks+.cue
Битрейт аудио: lossless
Продолжительность: 66:23
Трeклист:
01. Big Red (3:48)
02. April In Paris (3:49)
03. Two Franks (3:14)
04. Shiny Stockings (5:17)
05. Royal Garden Blues (3:05)
06. Stereophonic (2:26)
07. Blue And Sentimental (3:05)
08. Everyday I Have The Blues (5:28)
09. Paradise Squat (4:07)
10. Kansas City Wrinkles (5:42)
11. Midgets (3:15)
12. K.C. Organ Blues (2:56)
13. Every Tub (2:50)
14. Polka Dots And Moonbeams (3:31)
15. Sent For You Yesterday (4:02)
16. One O'Clock Jump (9:47)
Источник: what.cd
 
Audiochecker.log
AUDIOCHECKER v2.0 beta (build 457) - by Dester - opdester@freemail.hu
~~~~~~~~~~~~~~~~~~~~~~~~~~~~~~~~~~
Started at: пятница, 01. 01. 2010. - 13:46.07
16 files found
01 -===- D:\Р А З Д А Ч И\VERVE JAZZ MASTERS\LOSSLESS\VJM 02 - Count Basie\01 - Big Red.flac
  Extracted successfully
  Conclusion: this track is CDDA with probability 100%
  Tempfile successfully deleted.
02 -===- D:\Р А З Д А Ч И\VERVE JAZZ MASTERS\LOSSLESS\VJM 02 - Count Basie\02 - April in Paris.flac
  Extracted successfully
  Conclusion: this track is CDDA with probability 99%
  Tempfile successfully deleted.
03 -===- D:\Р А З Д А Ч И\VERVE JAZZ MASTERS\LOSSLESS\VJM 02 - Count Basie\03 - Two Franks.flac
  Extracted successfully
  Conclusion: this track is CDDA with probability 99%
  Tempfile successfully deleted.
04 -===- D:\Р А З Д А Ч И\VERVE JAZZ MASTERS\LOSSLESS\VJM 02 - Count Basie\04 - Shiny Stockings.flac
  Extracted successfully
  Conclusion: this track is CDDA with probability 99%
  Tempfile successfully deleted.
05 -===- D:\Р А З Д А Ч И\VERVE JAZZ MASTERS\LOSSLESS\VJM 02 - Count Basie\05 - Royal Garden Blues.flac
  Extracted successfully
  Conclusion: this track is CDDA with probability 100%
  Tempfile successfully deleted.
06 -===- D:\Р А З Д А Ч И\VERVE JAZZ MASTERS\LOSSLESS\VJM 02 - Count Basie\06 - Stereophonic.flac
  Extracted successfully
  Conclusion: this track is CDDA with probability 99%
  Tempfile successfully deleted.
07 -===- D:\Р А З Д А Ч И\VERVE JAZZ MASTERS\LOSSLESS\VJM 02 - Count Basie\07 - Blue and Sentimental.flac
  Extracted successfully
  Conclusion: this track is CDDA with probability 100%
  Tempfile successfully deleted.
08 -===- D:\Р А З Д А Ч И\VERVE JAZZ MASTERS\LOSSLESS\VJM 02 - Count Basie\08 - Every Day I Have the Blues.flac
  Extracted successfully
  Conclusion: this track is CDDA with probability 100%
  Tempfile successfully deleted.
09 -===- D:\Р А З Д А Ч И\VERVE JAZZ MASTERS\LOSSLESS\VJM 02 - Count Basie\09 - Paradise Squat.flac
  Extracted successfully
  Conclusion: this track is CDDA with probability 100%
  Tempfile successfully deleted.
10 -===- D:\Р А З Д А Ч И\VERVE JAZZ MASTERS\LOSSLESS\VJM 02 - Count Basie\10 - Kansas City Wrinkles.flac
  Extracted successfully
  Conclusion: this track is CDDA with probability 99%
  Tempfile successfully deleted.
11 -===- D:\Р А З Д А Ч И\VERVE JAZZ MASTERS\LOSSLESS\VJM 02 - Count Basie\11 - Midgets.flac
  Extracted successfully
  Conclusion: this track is CDDA with probability 100%
  Tempfile successfully deleted.
12 -===- D:\Р А З Д А Ч И\VERVE JAZZ MASTERS\LOSSLESS\VJM 02 - Count Basie\12 - K.C. Organ Blues.flac
  Extracted successfully
  Conclusion: this track is CDDA with probability 99%
  Tempfile successfully deleted.
13 -===- D:\Р А З Д А Ч И\VERVE JAZZ MASTERS\LOSSLESS\VJM 02 - Count Basie\13 - Every Tub.flac
  Extracted successfully
  Conclusion: this track is CDDA with probability 100%
  Tempfile successfully deleted.
14 -===- D:\Р А З Д А Ч И\VERVE JAZZ MASTERS\LOSSLESS\VJM 02 - Count Basie\14 - Polka Dots and Moonbeams.flac
  Extracted successfully
  Conclusion: this track is CDDA with probability 100%
  Tempfile successfully deleted.
15 -===- D:\Р А З Д А Ч И\VERVE JAZZ MASTERS\LOSSLESS\VJM 02 - Count Basie\15 - Sent For You Yesterday.flac
  Extracted successfully
  Conclusion: this track is CDDA with probability 100%
  Tempfile successfully deleted.
16 -===- D:\Р А З Д А Ч И\VERVE JAZZ MASTERS\LOSSLESS\VJM 02 - Count Basie\16 - One O'Clock Jump.flac
  Extracted successfully
  Conclusion: this track is CDDA with probability 100%
  Tempfile successfully deleted.
Finished at: пятница, 01. 01. 2010. - 13:52.57 (operation time: 0:06.50)

 
 
Отчет ЕАС
Exact Audio Copy V0.99 prebeta 3 from 28. July 2007
EAC extraction logfile from 4. May 2009, 4:37
Count Basie / Count Basie - Verve Jazz Masters 2
Used drive  : TSSTcorpDVD+-RW TS-L632H   Adapter: 1  ID: 0
Read mode               : Secure
Utilize accurate stream : Yes
Defeat audio cache      : Yes
Make use of C2 pointers : No
Read offset correction                      : 6
Overread into Lead-In and Lead-Out          : No
Fill up missing offset samples with silence : Yes
Delete leading and trailing silent blocks   : No
Null samples used in CRC calculations       : Yes
Used interface                              : Native Win32 interface for Win NT & 2000
Gap handling                                : Appended to previous track
Used output format              : User Defined Encoder
Selected bitrate                : 128 kBit/s
Quality                         : High
Add ID3 tag                     : No
Command line compressor         : C:\Program Files\Exact Audio Copy\Flac\flac.exe
Additional command line options : -V -8 -T "artist=%a" -T "title=%t" -T "album=%g" -T "date=%y" -T "tracknumber=%n" -T "genre=%m" %s
TOC of the extracted CD
     Track |   Start  |  Length  | Start sector | End sector
    ---------------------------------------------------------
        1  |  0:00.32 |  3:48.35 |        32    |    17166
        2  |  3:48.67 |  3:49.20 |     17167    |    34361
        3  |  7:38.12 |  3:14.05 |     34362    |    48916
        4  | 10:52.17 |  5:16.58 |     48917    |    72674
        5  | 16:09.00 |  3:05.37 |     72675    |    86586
        6  | 19:14.37 |  2:25.45 |     86587    |    97506
        7  | 21:40.07 |  3:04.55 |     97507    |   111361
        8  | 24:44.62 |  5:27.53 |    111362    |   135939
        9  | 30:12.40 |  4:07.17 |    135940    |   154481
       10  | 34:19.57 |  5:42.13 |    154482    |   180144
       11  | 40:01.70 |  3:14.72 |    180145    |   194766
       12  | 43:16.67 |  2:56.28 |    194767    |   207994
       13  | 46:13.20 |  2:49.72 |    207995    |   220741
       14  | 49:03.17 |  3:31.15 |    220742    |   236581
       15  | 52:34.32 |  4:01.63 |    236582    |   254719
       16  | 56:36.20 |  9:47.27 |    254720    |   298771
Track  1
     Filename C:\Users\Alex\Torrents\Rips\Count Basie - 1993 - Count Basie - Verve Jazz Masters 2\01 - Big Red.wav
     Pre-gap length  0:00:02.32
     Peak level 84.6 %
     Track quality 99.9 %
     Test CRC AED38511
     Copy CRC AED38511
     Track not present in AccurateRip database
     Copy OK
Track  2
     Filename C:\Users\Alex\Torrents\Rips\Count Basie - 1993 - Count Basie - Verve Jazz Masters 2\02 - April in Paris.wav
     Pre-gap length  0:00:02.62
     Peak level 94.3 %
     Track quality 100.0 %
     Test CRC 047B6436
     Copy CRC 047B6436
     Track not present in AccurateRip database
     Copy OK
Track  3
     Filename C:\Users\Alex\Torrents\Rips\Count Basie - 1993 - Count Basie - Verve Jazz Masters 2\03 - Two Franks.wav
     Pre-gap length  0:00:02.65
     Peak level 87.5 %
     Track quality 100.0 %
     Test CRC 4BCD1F22
     Copy CRC 4BCD1F22
     Track not present in AccurateRip database
     Copy OK
Track  4
     Filename C:\Users\Alex\Torrents\Rips\Count Basie - 1993 - Count Basie - Verve Jazz Masters 2\04 - Shiny Stockings.wav
     Pre-gap length  0:00:02.65
     Peak level 72.6 %
     Track quality 99.9 %
     Test CRC 9364AFC8
     Copy CRC 9364AFC8
     Track not present in AccurateRip database
     Copy OK
Track  5
     Filename C:\Users\Alex\Torrents\Rips\Count Basie - 1993 - Count Basie - Verve Jazz Masters 2\05 - Royal Garden Blues.wav
     Pre-gap length  0:00:02.68
     Peak level 80.7 %
     Track quality 100.0 %
     Test CRC BD23D171
     Copy CRC BD23D171
     Track not present in AccurateRip database
     Copy OK
Track  6
     Filename C:\Users\Alex\Torrents\Rips\Count Basie - 1993 - Count Basie - Verve Jazz Masters 2\06 - Stereophonic.wav
     Pre-gap length  0:00:02.62
     Peak level 80.4 %
     Track quality 100.0 %
     Test CRC 2955792A
     Copy CRC 2955792A
     Track not present in AccurateRip database
     Copy OK
Track  7
     Filename C:\Users\Alex\Torrents\Rips\Count Basie - 1993 - Count Basie - Verve Jazz Masters 2\07 - Blue and Sentimental.wav
     Pre-gap length  0:00:02.65
     Peak level 78.3 %
     Track quality 100.0 %
     Test CRC 17726DC8
     Copy CRC 17726DC8
     Track not present in AccurateRip database
     Copy OK
Track  8
     Filename C:\Users\Alex\Torrents\Rips\Count Basie - 1993 - Count Basie - Verve Jazz Masters 2\08 - Every Day I Have the Blues.wav
     Pre-gap length  0:00:02.67
     Peak level 83.4 %
     Track quality 100.0 %
     Test CRC 11512A72
     Copy CRC 11512A72
     Track not present in AccurateRip database
     Copy OK
Track  9
     Filename C:\Users\Alex\Torrents\Rips\Count Basie - 1993 - Count Basie - Verve Jazz Masters 2\09 - Paradise Squat.wav
     Pre-gap length  0:00:02.65
     Peak level 93.1 %
     Track quality 100.0 %
     Test CRC E0AEA4FE
     Copy CRC E0AEA4FE
     Track not present in AccurateRip database
     Copy OK
Track 10
     Filename C:\Users\Alex\Torrents\Rips\Count Basie - 1993 - Count Basie - Verve Jazz Masters 2\10 - Kansas City Wrinkles.wav
     Pre-gap length  0:00:02.62
     Peak level 82.9 %
     Track quality 100.0 %
     Test CRC 8143AC74
     Copy CRC 8143AC74
     Track not present in AccurateRip database
     Copy OK
Track 11
     Filename C:\Users\Alex\Torrents\Rips\Count Basie - 1993 - Count Basie - Verve Jazz Masters 2\11 - Midgets.wav
     Pre-gap length  0:00:02.65
     Peak level 82.5 %
     Track quality 100.0 %
     Test CRC B6B2B5B8
     Copy CRC B6B2B5B8
     Track not present in AccurateRip database
     Copy OK
Track 12
     Filename C:\Users\Alex\Torrents\Rips\Count Basie - 1993 - Count Basie - Verve Jazz Masters 2\12 - K.C. Organ Blues.wav
     Pre-gap length  0:00:02.67
     Peak level 91.8 %
     Track quality 100.0 %
     Test CRC B5873B51
     Copy CRC B5873B51
     Track not present in AccurateRip database
     Copy OK
Track 13
     Filename C:\Users\Alex\Torrents\Rips\Count Basie - 1993 - Count Basie - Verve Jazz Masters 2\13 - Every Tub.wav
     Pre-gap length  0:00:02.65
     Peak level 88.0 %
     Track quality 100.0 %
     Test CRC 4342F577
     Copy CRC 4342F577
     Track not present in AccurateRip database
     Copy OK
Track 14
     Filename C:\Users\Alex\Torrents\Rips\Count Basie - 1993 - Count Basie - Verve Jazz Masters 2\14 - Polka Dots and Moonbeams.wav
     Pre-gap length  0:00:02.65
     Peak level 88.2 %
     Track quality 99.9 %
     Test CRC E972C4CF
     Copy CRC E972C4CF
     Track not present in AccurateRip database
     Copy OK
Track 15
     Filename C:\Users\Alex\Torrents\Rips\Count Basie - 1993 - Count Basie - Verve Jazz Masters 2\15 - Sent For You Yesterday.wav
     Pre-gap length  0:00:02.62
     Peak level 80.0 %
     Track quality 100.0 %
     Test CRC 30515B56
     Copy CRC 30515B56
     Track not present in AccurateRip database
     Copy OK
Track 16
     Filename C:\Users\Alex\Torrents\Rips\Count Basie - 1993 - Count Basie - Verve Jazz Masters 2\16 - One O'Clock Jump.wav
     Pre-gap length  0:00:02.65
     Peak level 88.3 %
     Track quality 100.0 %
     Test CRC 0BEDDB37
     Copy CRC 0BEDDB37
     Track not present in AccurateRip database
     Copy OK
None of the tracks are present in the AccurateRip database
No errors occurred
End of status report
   Мои раздачи на трекере
16:02
595
Нет комментариев. Ваш будет первым!