Поиск

(Big Band, Swing) [CD] Roy Eldridge - Little Jazz - 1989, FLAC (tracks+.cue), lossless

(Big Band, Swing) [CD] Roy Eldridge - Little Jazz - 1989, FLAC (tracks+.cue), lossless
Треклист:
Roy Eldridge - Little Jazz Жанр: Big Band, Swing
Носитель: CD
Год издания: 1989
Издатель (лейбл): Columbia
Номер по каталогу: CK 45275
Аудиокодек: FLAC (*.flac)
Тип рипа: tracks+.cue
Битрейт аудио: lossless
Продолжительность: 60:18
Rip by LolaMontes
Наличие сканов в содержимом раздачи: да
Треклист:
01. (Lookie, Lookie, Lookie) Here Comes Cookie (Teddy Hill & His Orchestra) (3:03)
02. When I Grow Too Old To Dream (Putney Daindridge & His Orchestra) (2:40)
03. Christopher Columbus (Fletcher Henderson & His Orchestra) (3:05)
04. Big Chief De Sota (Grand Terrace Swing) (Fletcher Henderson & His Orchestra) (2:59)
05. Blue Lou (Fletcher Henderson & His Orchestra) (3:09)
06. Stealin' Apples (Fletcher Henderson & His Orchestra) (2:59)
07. Mary Had A Little Lamb (Teddy Wilson & His Orchestra) (2:57)
08. Too Good To Be True (Teddy Wilson & His Orchestra) (3:11)
09. Warmin' Up (Teddy Wilson & His Orchestra) (3:17)
10. Blues In C Sharp Minor (Teddy Wilson & His Orchestra) (3:22)
11. Wabash Stomp (#1) (Roy Eldridge & His Orchestra) (3:10)
12. Wabash Stomp (#2) (Roy Eldridge & His Orchestra) (3:11)
13. Florida Stomp (Roy Eldridge & His Orchestra) (2:58)
14. Hecklers Hop (Roy Eldridge & His Orchestra) (2:37)
15. Where The Lazy River Goes By (Roy Eldridge & His Orchestra) (2:35)
16. That Thing (Roy Eldridge & His Orchestra) (3:02)
17. After You've Gone (Roy Eldridge & His Orchestra) (3:02)
18. Wham! (Be-Bop-Boom-Bam) (Mildred Bailey & Her Orchestra) (3:13)
19. Fallin' In Love Again (Billie Holiday & Her Orchestra) (2:49)
20. I'm Nobody's Baby (Mildred Bailey & Her Orchestra) (2:58)
 
 
Лог создания рипа
Exact Audio Copy V1.0 beta 3 from 29. August 2011
EAC extraction logfile from 28. September 2014, 13:56
Roy Eldridge / Little Jazz
Used drive : HL-DT-STDVD+-RW GH82N Adapter: 0 ID: 2
Read mode : Secure
Utilize accurate stream : Yes
Defeat audio cache : Yes
Make use of C2 pointers : No
Read offset correction : 667
Overread into Lead-In and Lead-Out : No
Fill up missing offset samples with silence : Yes
Delete leading and trailing silent blocks : No
Null samples used in CRC calculations : Yes
Used interface : Native Win32 interface for Win NT & 2000
Gap handling : Appended to previous track
Used output format : User Defined Encoder
Selected bitrate : 1024 kBit/s
Quality : High
Add ID3 tag : No
Command line compressor : C:\Program Files (x86)\Exact Audio Copy\Flac\flac.exe
Additional command line options : -8 -V -T "ARTIST=%artist%" -T "TITLE=%title%" -T "ALBUM=%albumtitle%" -T "DATE=%year%" -T "TRACKNUMBER=%tracknr%" -T "GENRE=%genre%" -T "COMMENT=%comment%" -T "BAND=%albuminterpret%" -T "ALBUMARTIST=%albuminterpret%" -T "COMPOSER=%composer%" %haslyrics%--tag-from-file=LYRICS="%lyricsfile%"%haslyrics% -T "DISCNUMBER=%cdnumber%" -T "TOTALDISCS=%totalcds%" -T "TOTALTRACKS=%numtracks%" %hascover%--picture="%coverfile%"%hascover% %source% -o %dest%
TOC of the extracted CD
Track | Start | Length | Start sector | End sector
---------------------------------------------------------
1 | 0:00.00 | 3:03.22 | 0 | 13746
2 | 3:03.22 | 2:40.13 | 13747 | 25759
3 | 5:43.35 | 3:04.65 | 25760 | 39624
4 | 8:48.25 | 2:59.27 | 39625 | 53076
5 | 11:47.52 | 3:09.15 | 53077 | 67266
6 | 14:56.67 | 2:59.05 | 67267 | 80696
7 | 17:55.72 | 2:57.30 | 80697 | 94001
8 | 20:53.27 | 3:11.20 | 94002 | 108346
9 | 24:04.47 | 3:17.18 | 108347 | 123139
10 | 27:21.65 | 3:21.72 | 123140 | 138286
11 | 30:43.62 | 3:09.38 | 138287 | 152499
12 | 33:53.25 | 3:11.15 | 152500 | 166839
13 | 37:04.40 | 2:57.55 | 166840 | 180169
14 | 40:02.20 | 2:37.35 | 180170 | 191979
15 | 42:39.55 | 2:34.62 | 191980 | 203591
16 | 45:14.42 | 3:02.13 | 203592 | 217254
17 | 48:16.55 | 3:01.52 | 217255 | 230881
18 | 51:18.32 | 3:13.13 | 230882 | 245369
19 | 54:31.45 | 2:48.60 | 245370 | 258029
20 | 57:20.30 | 2:57.50 | 258030 | 271354
Track 1
Filename C:\Rips\Roy Eldridge - Little Jazz\01 (Lookie, Lookie, Lookie) Here Comes Cookie.wav
Pre-gap length 0:00:02.00
Peak level 92.6 %
Extraction speed 1.8 X
Track quality 100.0 %
Copy CRC 4E91B486
Accurately ripped (confidence 4) [F73CF544] (AR v2)
Copy OK
Track 2
Filename C:\Rips\Roy Eldridge - Little Jazz\02 When I Grow Too Old To Dream.wav
Pre-gap length 0:00:02.12
Peak level 76.0 %
Extraction speed 1.9 X
Track quality 100.0 %
Copy CRC 2E3A761D
Accurately ripped (confidence 4) [BF03D580] (AR v2)
Copy OK
Track 3
Filename C:\Rips\Roy Eldridge - Little Jazz\03 Christopher Columbus.wav
Pre-gap length 0:00:02.63
Peak level 85.4 %
Extraction speed 2.0 X
Track quality 100.0 %
Copy CRC CBB7EA49
Accurately ripped (confidence 4) [644EA499] (AR v2)
Copy OK
Track 4
Filename C:\Rips\Roy Eldridge - Little Jazz\04 Big Chief De Sota (Grand Terrace Swing).wav
Pre-gap length 0:00:02.50
Peak level 84.0 %
Extraction speed 2.2 X
Track quality 100.0 %
Copy CRC 84FB9C94
Accurately ripped (confidence 4) [3BB7AF5D] (AR v2)
Copy OK
Track 5
Filename C:\Rips\Roy Eldridge - Little Jazz\05 Blue Lou.wav
Pre-gap length 0:00:02.62
Peak level 83.8 %
Extraction speed 1.9 X
Track quality 99.9 %
Copy CRC B09FF2C2
Accurately ripped (confidence 4) [EACF7C20] (AR v2)
Copy OK
Track 6
Filename C:\Rips\Roy Eldridge - Little Jazz\06 Stealin' Apples.wav
Pre-gap length 0:00:02.55
Peak level 91.9 %
Extraction speed 2.4 X
Track quality 100.0 %
Copy CRC 21A8AD5D
Accurately ripped (confidence 4) [AD1CEFC1] (AR v2)
Copy OK
Track 7
Filename C:\Rips\Roy Eldridge - Little Jazz\07 Mary Had A Little Lamb.wav
Pre-gap length 0:00:02.62
Peak level 92.9 %
Extraction speed 2.5 X
Track quality 100.0 %
Copy CRC 4F442B3D
Accurately ripped (confidence 4) [3D468E05] (AR v2)
Copy OK
Track 8
Filename C:\Rips\Roy Eldridge - Little Jazz\08 Too Good To Be True.wav
Pre-gap length 0:00:02.62
Peak level 85.1 %
Extraction speed 2.6 X
Track quality 100.0 %
Copy CRC E3A21609
Accurately ripped (confidence 4) [21C4A89E] (AR v2)
Copy OK
Track 9
Filename C:\Rips\Roy Eldridge - Little Jazz\09 Warmin' Up.wav
Pre-gap length 0:00:02.62
Peak level 80.6 %
Extraction speed 2.7 X
Track quality 100.0 %
Copy CRC 0939D8E7
Accurately ripped (confidence 4) [8BE17DB4] (AR v2)
Copy OK
Track 10
Filename C:\Rips\Roy Eldridge - Little Jazz\10 Blues In C Sharp Minor.wav
Pre-gap length 0:00:02.63
Peak level 77.4 %
Extraction speed 2.8 X
Track quality 100.0 %
Copy CRC 6DE54D73
Accurately ripped (confidence 4) [C7D86B08] (AR v2)
Copy OK
Track 11
Filename C:\Rips\Roy Eldridge - Little Jazz\11 Wabash Stomp (#1).wav
Pre-gap length 0:00:02.62
Peak level 68.0 %
Extraction speed 2.8 X
Track quality 100.0 %
Copy CRC 57C757AD
Accurately ripped (confidence 4) [3200610A] (AR v2)
Copy OK
Track 12
Filename C:\Rips\Roy Eldridge - Little Jazz\12 Wabash Stomp (#2).wav
Pre-gap length 0:00:02.63
Peak level 63.9 %
Extraction speed 2.5 X
Track quality 99.9 %
Copy CRC FEAED70F
Accurately ripped (confidence 4) [8371C1A7] (AR v2)
Copy OK
Track 13
Filename C:\Rips\Roy Eldridge - Little Jazz\13 Florida Stomp.wav
Pre-gap length 0:00:02.55
Peak level 61.7 %
Extraction speed 3.1 X
Track quality 100.0 %
Copy CRC 3E42DBCD
Accurately ripped (confidence 4) [47E283C3] (AR v2)
Copy OK
Track 14
Filename C:\Rips\Roy Eldridge - Little Jazz\14 Hecklers Hop.wav
Pre-gap length 0:00:02.53
Peak level 66.3 %
Extraction speed 3.0 X
Track quality 100.0 %
Copy CRC 5205AFD4
Accurately ripped (confidence 4) [D53BC459] (AR v2)
Copy OK
Track 15
Filename C:\Rips\Roy Eldridge - Little Jazz\15 Where The Lazy River Goes By.wav
Pre-gap length 0:00:02.63
Peak level 58.9 %
Extraction speed 3.1 X
Track quality 100.0 %
Copy CRC A9613933
Accurately ripped (confidence 4) [D5350C67] (AR v2)
Copy OK
Track 16
Filename C:\Rips\Roy Eldridge - Little Jazz\16 That Thing.wav
Pre-gap length 0:00:02.62
Peak level 63.5 %
Extraction speed 3.2 X
Track quality 100.0 %
Copy CRC FE94F3D4
Accurately ripped (confidence 4) [689ACFF2] (AR v2)
Copy OK
Track 17
Filename C:\Rips\Roy Eldridge - Little Jazz\17 After You've Gone.wav
Pre-gap length 0:00:02.63
Peak level 64.0 %
Extraction speed 3.3 X
Track quality 100.0 %
Copy CRC F6A4CCF9
Accurately ripped (confidence 4) [73AA452A] (AR v2)
Copy OK
Track 18
Filename C:\Rips\Roy Eldridge - Little Jazz\18 Wham! (Be-Bop-Boom-Bam).wav
Pre-gap length 0:00:02.62
Peak level 73.4 %
Extraction speed 2.9 X
Track quality 99.9 %
Copy CRC 09AAC847
Accurately ripped (confidence 4) [67FB2CD5] (AR v2)
Copy OK
Track 19
Filename C:\Rips\Roy Eldridge - Little Jazz\19 Fallin' In Love Again.wav
Pre-gap length 0:00:02.63
Peak level 78.7 %
Extraction speed 3.4 X
Track quality 100.0 %
Copy CRC 91731E68
Accurately ripped (confidence 4) [C79F2AA5] (AR v2)
Copy OK
Track 20
Filename C:\Rips\Roy Eldridge - Little Jazz\20 I'm Nobody's Baby.wav
Pre-gap length 0:00:02.63
Peak level 81.2 %
Extraction speed 3.0 X
Track quality 99.9 %
Copy CRC A3259704
Accurately ripped (confidence 4) [319B16A4] (AR v2)
Copy OK
All tracks accurately ripped
No errors occurred
End of status report
---- CUETools DB Plugin V2.1.3
[CTDB TOCID: abjzYMDu4YLAs8Bjvvd66fRtW0M-] found, Submit result: abjzYMDu4YLAs8Bjvvd66fRtW0M- has been confirmed
[11050dbe] (1/1) Accurately ripped
==== Log checksum DD06DA17B1B1013CE0DB0F88620B8E425FF614B34B2C0C4B09ED0FE6A2782B2A ====
 
Содержание индексной карты (.CUE)
REM GENRE Jazz
REM DATE 1989
REM DISCID 190E2214
REM COMMENT "ExactAudioCopy v1.0b3"
PERFORMER "Roy Eldridge"
TITLE "Little Jazz"
FILE "01 (Lookie, Lookie, Lookie) Here Comes Cookie.wav" WAVE
TRACK 01 AUDIO
TITLE "(Lookie, Lookie, Lookie) Here Comes Cookie"
PERFORMER "Teddy Hill & His Orchestra"
INDEX 01 00:00:00
TRACK 02 AUDIO
TITLE "When I Grow Too Old To Dream"
PERFORMER "Putney Daindridge & His Orchestra"
INDEX 00 03:01:10
FILE "02 When I Grow Too Old To Dream.wav" WAVE
INDEX 01 00:00:00
TRACK 03 AUDIO
TITLE "Christopher Columbus"
PERFORMER "Fletcher Henderson & His Orchestra"
INDEX 00 02:37:25
FILE "03 Christopher Columbus.wav" WAVE
INDEX 01 00:00:00
TRACK 04 AUDIO
TITLE "Big Chief De Sota (Grand Terrace Swing)"
PERFORMER "Fletcher Henderson & His Orchestra"
INDEX 00 03:02:15
FILE "04 Big Chief De Sota (Grand Terrace Swing).wav" WAVE
INDEX 01 00:00:00
TRACK 05 AUDIO
TITLE "Blue Lou"
PERFORMER "Fletcher Henderson & His Orchestra"
INDEX 00 02:56:40
FILE "05 Blue Lou.wav" WAVE
INDEX 01 00:00:00
TRACK 06 AUDIO
TITLE "Stealin' Apples"
PERFORMER "Fletcher Henderson & His Orchestra"
INDEX 00 03:06:35
FILE "06 Stealin' Apples.wav" WAVE
INDEX 01 00:00:00
TRACK 07 AUDIO
TITLE "Mary Had A Little Lamb"
PERFORMER "Teddy Wilson & His Orchestra"
INDEX 00 02:56:18
FILE "07 Mary Had A Little Lamb.wav" WAVE
INDEX 01 00:00:00
TRACK 08 AUDIO
TITLE "Too Good To Be True"
PERFORMER "Teddy Wilson & His Orchestra"
INDEX 00 02:54:43
FILE "08 Too Good To Be True.wav" WAVE
INDEX 01 00:00:00
TRACK 09 AUDIO
TITLE "Warmin' Up"
PERFORMER "Teddy Wilson & His Orchestra"
INDEX 00 03:08:33
FILE "09 Warmin' Up.wav" WAVE
INDEX 01 00:00:00
TRACK 10 AUDIO
TITLE "Blues In C Sharp Minor"
PERFORMER "Teddy Wilson & His Orchestra"
INDEX 00 03:14:30
FILE "10 Blues In C Sharp Minor.wav" WAVE
INDEX 01 00:00:00
TRACK 11 AUDIO
TITLE "Wabash Stomp (#1)"
PERFORMER "Roy Eldridge & His Orchestra"
INDEX 00 03:19:10
FILE "11 Wabash Stomp (#1).wav" WAVE
INDEX 01 00:00:00
TRACK 12 AUDIO
TITLE "Wabash Stomp (#2)"
PERFORMER "Roy Eldridge & His Orchestra"
INDEX 00 03:06:50
FILE "12 Wabash Stomp (#2).wav" WAVE
INDEX 01 00:00:00
TRACK 13 AUDIO
TITLE "Florida Stomp"
PERFORMER "Roy Eldridge & His Orchestra"
INDEX 00 03:08:35
FILE "13 Florida Stomp.wav" WAVE
INDEX 01 00:00:00
TRACK 14 AUDIO
TITLE "Hecklers Hop"
PERFORMER "Roy Eldridge & His Orchestra"
INDEX 00 02:55:02
FILE "14 Hecklers Hop.wav" WAVE
INDEX 01 00:00:00
TRACK 15 AUDIO
TITLE "Where The Lazy River Goes By"
PERFORMER "Roy Eldridge & His Orchestra"
INDEX 00 02:34:47
FILE "15 Where The Lazy River Goes By.wav" WAVE
INDEX 01 00:00:00
TRACK 16 AUDIO
TITLE "That Thing"
PERFORMER "Roy Eldridge & His Orchestra"
INDEX 00 02:32:00
FILE "16 That Thing.wav" WAVE
INDEX 01 00:00:00
TRACK 17 AUDIO
TITLE "After You've Gone"
PERFORMER "Roy Eldridge & His Orchestra"
INDEX 00 02:59:25
FILE "17 After You've Gone.wav" WAVE
INDEX 01 00:00:00
TRACK 18 AUDIO
TITLE "Wham! (Be-Bop-Boom-Bam)"
PERFORMER "Mildred Bailey & Her Orchestra"
INDEX 00 02:58:65
FILE "18 Wham! (Be-Bop-Boom-Bam).wav" WAVE
INDEX 01 00:00:00
TRACK 19 AUDIO
TITLE "Fallin' In Love Again"
PERFORMER "Billie Holiday & Her Orchestra"
INDEX 00 03:10:25
FILE "19 Fallin' In Love Again.wav" WAVE
INDEX 01 00:00:00
TRACK 20 AUDIO
TITLE "I'm Nobody's Baby"
PERFORMER "Mildred Bailey & Her Orchestra"
INDEX 00 02:45:72
FILE "20 I'm Nobody's Baby.wav" WAVE
INDEX 01 00:00:00
Download available for power users only.
19:08
358
Нет комментариев. Ваш будет первым!