Поиск

(Big Band, Swing) Harry James - Verve Jazz Masters 55 - 1995, FLAC (tracks+.cue), lossless

(Big Band, Swing) Harry James - Verve Jazz Masters 55 - 1995, FLAC (tracks+.cue), lossless
Треклист:
Жанр: Big Band, Swing
Год издания: 1995
Издатель (лейбл): Verve
Номер по каталогу: 529 902-2
Аудиокодек: FLAC (*.flac)
Тип рипа: tracks+.cue
Битрейт аудио: lossless
Продолжительность: 54:27
Источник: вата
Сканов
Треклист:
01. I Surrender Dear (3:04)
02. Walkin (4:22)
03. Eyes (4:13)
04. Lover Man (Oh, Where Can You Be?) (3:23)
05. The Truth (3:07)
06. End Of Town Blues (3:03)
07. Hommage Swee Pea (5:16)
08. Cornet Shop Suey (2:44)
09. If I Could Be With You (2:39)
10. Frenesi (2:06)
11. Blues Like (4:18)
12. The Jazz Conoisseur (3:35)
13. Sophisticated Lady (2:28)
14. A Swinging Serenade (3:25)
15. Rosebud (3:51)
16. Mister Johnson (2:54)
 
 
Лог создания рипа
Exact Audio Copy V1.0 beta 1 from 15. November 2010
EAC extraction logfile from 8. June 2011, 22:14
Harry James / Jazz Masters 55
Used drive  : HL-DT-STDVDRAM GT30N   Adapter: 0  ID: 1
Read mode               : Secure
Utilize accurate stream : Yes
Defeat audio cache      : Yes
Make use of C2 pointers : No
Read offset correction                      : 103
Overread into Lead-In and Lead-Out          : No
Fill up missing offset samples with silence : Yes
Delete leading and trailing silent blocks   : No
Null samples used in CRC calculations       : Yes
Used interface                              : Native Win32 interface for Win NT & 2000
Gap handling                                : Appended to previous track
Used output format              : User Defined Encoder
Selected bitrate                : 1024 kBit/s
Quality                         : High
Add ID3 tag                     : No
Command line compressor         : C:\Exact Audio Copy\Flac\flac.exe
Additional command line options : -V -8 -T "artist=%a" -T "title=%t" -T "album=%g" -T "date=%y" -T "tracknumber=%n" -T "genre=%m" %s
TOC of the extracted CD
     Track |   Start  |  Length  | Start sector | End sector
    ---------------------------------------------------------
        1  |  0:00.00 |  3:04.15 |         0    |    13814
        2  |  3:04.15 |  4:22.05 |     13815    |    33469
        3  |  7:26.20 |  4:13.12 |     33470    |    52456
        4  | 11:39.32 |  3:23.08 |     52457    |    67689
        5  | 15:02.40 |  3:06.42 |     67690    |    81681
        6  | 18:09.07 |  3:02.65 |     81682    |    95396
        7  | 21:11.72 |  5:15.55 |     95397    |   119076
        8  | 26:27.52 |  2:44.18 |    119077    |   131394
        9  | 29:11.70 |  2:38.42 |    131395    |   143286
       10  | 31:50.37 |  2:06.13 |    143287    |   152749
       11  | 33:56.50 |  4:17.62 |    152750    |   172086
       12  | 38:14.37 |  3:34.70 |    172087    |   188206
       13  | 41:49.32 |  2:27.55 |    188207    |   199286
       14  | 44:17.12 |  3:25.23 |    199287    |   214684
       15  | 47:42.35 |  3:50.50 |    214685    |   231984
       16  | 51:33.10 |  2:53.50 |    231985    |   245009
Track  1
     Filename D:\My Documents\My Music\What.cd project\Harry James - 1996 - Verve Jazz Masters 55 [FLAC]\01. Harry James - I Surrender Dear.wav
     Pre-gap length  0:00:02.00
     Peak level 100.0 %
     Extraction speed 1.1 X
     Track quality 100.0 %
     Test CRC 660B539A
     Copy CRC 660B539A
     Accurately ripped (confidence 2)  [860BF699]
     Copy OK
Track  2
     Filename D:\My Documents\My Music\What.cd project\Harry James - 1996 - Verve Jazz Masters 55 [FLAC]\02. Harry James - Walkin.wav
     Pre-gap length  0:00:02.13
     Peak level 98.4 %
     Extraction speed 1.4 X
     Track quality 100.0 %
     Test CRC A03F422A
     Copy CRC A03F422A
     Accurately ripped (confidence 2)  [6BA538FF]
     Copy OK
Track  3
     Filename D:\My Documents\My Music\What.cd project\Harry James - 1996 - Verve Jazz Masters 55 [FLAC]\03. Harry James - Eyes.wav
     Pre-gap length  0:00:02.70
     Peak level 86.4 %
     Extraction speed 1.5 X
     Track quality 100.0 %
     Test CRC 72AF35DD
     Copy CRC 72AF35DD
     Accurately ripped (confidence 2)  [3EDED60A]
     Copy OK
Track  4
     Filename D:\My Documents\My Music\What.cd project\Harry James - 1996 - Verve Jazz Masters 55 [FLAC]\04. Harry James - Lover Man (Oh, Where Can You Be).wav
     Pre-gap length  0:00:02.56
     Peak level 63.9 %
     Extraction speed 1.5 X
     Track quality 100.0 %
     Test CRC 125102C3
     Copy CRC 125102C3
     Accurately ripped (confidence 2)  [1EED035A]
     Copy OK
Track  5
     Filename D:\My Documents\My Music\What.cd project\Harry James - 1996 - Verve Jazz Masters 55 [FLAC]\05. Harry James - The Truth.wav
     Pre-gap length  0:00:02.53
     Peak level 77.3 %
     Extraction speed 1.6 X
     Track quality 100.0 %
     Test CRC F7D29213
     Copy CRC F7D29213
     Accurately ripped (confidence 2)  [2BF1BF97]
     Copy OK
Track  6
     Filename D:\My Documents\My Music\What.cd project\Harry James - 1996 - Verve Jazz Masters 55 [FLAC]\06. Harry James - End Of Town Blues.wav
     Pre-gap length  0:00:02.73
     Peak level 82.2 %
     Extraction speed 1.6 X
     Track quality 100.0 %
     Test CRC 96167991
     Copy CRC 96167991
     Accurately ripped (confidence 2)  [92D75626]
     Copy OK
Track  7
     Filename D:\My Documents\My Music\What.cd project\Harry James - 1996 - Verve Jazz Masters 55 [FLAC]\07. Harry James - Hommage   Swee Pea.wav
     Pre-gap length  0:00:02.66
     Peak level 76.8 %
     Extraction speed 1.9 X
     Track quality 100.0 %
     Test CRC 491D2D06
     Copy CRC 491D2D06
     Accurately ripped (confidence 2)  [FAB9B385]
     Copy OK
Track  8
     Filename D:\My Documents\My Music\What.cd project\Harry James - 1996 - Verve Jazz Masters 55 [FLAC]\08. Harry James - Cornet Shop Suey.wav
     Pre-gap length  0:00:02.56
     Peak level 81.1 %
     Extraction speed 1.8 X
     Track quality 100.0 %
     Test CRC FFBE75B0
     Copy CRC FFBE75B0
     Accurately ripped (confidence 2)  [88E94AE2]
     Copy OK
Track  9
     Filename D:\My Documents\My Music\What.cd project\Harry James - 1996 - Verve Jazz Masters 55 [FLAC]\09. Harry James - If I Could Be With You.wav
     Pre-gap length  0:00:02.64
     Peak level 88.6 %
     Extraction speed 1.9 X
     Track quality 100.0 %
     Test CRC 22E53979
     Copy CRC 22E53979
     Accurately ripped (confidence 2)  [57DB48F8]
     Copy OK
Track 10
     Filename D:\My Documents\My Music\What.cd project\Harry James - 1996 - Verve Jazz Masters 55 [FLAC]\10. Harry James - Frenesi.wav
     Pre-gap length  0:00:02.53
     Peak level 87.0 %
     Extraction speed 1.4 X
     Track quality 99.9 %
     Test CRC 16C94B6C
     Copy CRC 16C94B6C
     Accurately ripped (confidence 2)  [9EAE897C]
     Copy OK
Track 11
     Filename D:\My Documents\My Music\What.cd project\Harry James - 1996 - Verve Jazz Masters 55 [FLAC]\11. Harry James - Blues Like.wav
     Pre-gap length  0:00:02.77
     Peak level 79.5 %
     Extraction speed 2.1 X
     Track quality 100.0 %
     Test CRC E305E07A
     Copy CRC E305E07A
     Accurately ripped (confidence 2)  [E8DF98E6]
     Copy OK
Track 12
     Filename D:\My Documents\My Music\What.cd project\Harry James - 1996 - Verve Jazz Masters 55 [FLAC]\12. Harry James - The Jazz Conoisseur.wav
     Pre-gap length  0:00:02.62
     Peak level 95.4 %
     Extraction speed 2.2 X
     Track quality 100.0 %
     Test CRC 95C0C31C
     Copy CRC 95C0C31C
     Accurately ripped (confidence 2)  [DD2DFE0F]
     Copy OK
Track 13
     Filename D:\My Documents\My Music\What.cd project\Harry James - 1996 - Verve Jazz Masters 55 [FLAC]\13. Harry James - Sophisticated Lady.wav
     Pre-gap length  0:00:02.33
     Peak level 87.3 %
     Extraction speed 1.7 X
     Track quality 99.9 %
     Test CRC 897C16D6
     Copy CRC 897C16D6
     Accurately ripped (confidence 2)  [96362E53]
     Copy OK
Track 14
     Filename D:\My Documents\My Music\What.cd project\Harry James - 1996 - Verve Jazz Masters 55 [FLAC]\14. Harry James - A Swinging Serenade.wav
     Pre-gap length  0:00:02.69
     Peak level 89.1 %
     Extraction speed 2.2 X
     Track quality 100.0 %
     Test CRC 84CE4C16
     Copy CRC 84CE4C16
     Accurately ripped (confidence 2)  [895B9D4A]
     Copy OK
Track 15
     Filename D:\My Documents\My Music\What.cd project\Harry James - 1996 - Verve Jazz Masters 55 [FLAC]\15. Harry James - Rosebud.wav
     Pre-gap length  0:00:02.57
     Peak level 89.5 %
     Extraction speed 2.3 X
     Track quality 100.0 %
     Test CRC 93A7E2C2
     Copy CRC 93A7E2C2
     Accurately ripped (confidence 2)  [4DF32B16]
     Copy OK
Track 16
     Filename D:\My Documents\My Music\What.cd project\Harry James - 1996 - Verve Jazz Masters 55 [FLAC]\16. Harry James - Mister Johnson.wav
     Pre-gap length  0:00:02.66
     Peak level 64.0 %
     Extraction speed 1.9 X
     Track quality 99.9 %
     Test CRC 275B47B4
     Copy CRC 275B47B4
     Accurately ripped (confidence 2)  [3A57EE12]
     Copy OK
All tracks accurately ripped
No errors occurred
End of status report
==== Log checksum 9777CCE73DC3E9A14123D463F40DD2A0FEEFF39C14C363EE1BB9B855D2116D3D ====
 
 
Содержание индексной карты (.CUE)
REM GENRE Big Band
REM DATE 1995
REM DISCID E60CC210
REM COMMENT "ExactAudioCopy v1.0b1"
PERFORMER "Harry James"
TITLE "Harry James - Verve Jazz Masters 55"
FILE "01. I Surrender Dear.flac" WAVE
  TRACK 01 AUDIO
    INDEX 01 00:00:00
  TRACK 02 AUDIO
    INDEX 00 03:02:05
FILE "02. Walkin.flac" WAVE
    INDEX 01 00:00:00
  TRACK 03 AUDIO
    INDEX 00 04:19:27
FILE "03. Eyes.flac" WAVE
    INDEX 01 00:00:00
  TRACK 04 AUDIO
    INDEX 00 04:10:45
FILE "04. Lover Man (Oh, Where Can You Be).flac" WAVE
    INDEX 01 00:00:00
  TRACK 05 AUDIO
    INDEX 00 03:20:43
FILE "05. The Truth.flac" WAVE
    INDEX 01 00:00:00
  TRACK 06 AUDIO
    INDEX 00 03:03:62
FILE "06. End Of Town Blues.flac" WAVE
    INDEX 01 00:00:00
  TRACK 07 AUDIO
    INDEX 00 03:00:15
FILE "07. Hommage   Swee Pea.flac" WAVE
    INDEX 01 00:00:00
  TRACK 08 AUDIO
    INDEX 00 05:13:13
FILE "08. Cornet Shop Suey.flac" WAVE
    INDEX 01 00:00:00
  TRACK 09 AUDIO
    INDEX 00 02:41:45
FILE "09. If I Could Be With You.flac" WAVE
    INDEX 01 00:00:00
  TRACK 10 AUDIO
    INDEX 00 02:36:02
FILE "10. Frenesi.flac" WAVE
    INDEX 01 00:00:00
  TRACK 11 AUDIO
    INDEX 00 02:03:30
FILE "11. Blues Like.flac" WAVE
    INDEX 01 00:00:00
  TRACK 12 AUDIO
    INDEX 00 04:15:15
FILE "12. The Jazz Conoisseur.flac" WAVE
    INDEX 01 00:00:00
  TRACK 13 AUDIO
    INDEX 00 03:32:45
FILE "13. Sophisticated Lady.flac" WAVE
    INDEX 01 00:00:00
  TRACK 14 AUDIO
    INDEX 00 02:25:03
FILE "14. A Swinging Serenade.flac" WAVE
    INDEX 01 00:00:00
  TRACK 15 AUDIO
    INDEX 00 03:22:55
FILE "15. Rosebud.flac" WAVE
    INDEX 01 00:00:00
  TRACK 16 AUDIO
    INDEX 00 03:48:00
FILE "16. Mister Johnson.flac" WAVE
    INDEX 01 00:00:00
03:57
764
Нет комментариев. Ваш будет первым!