Поиск

(Big Band, Swing) Johnny Hodges — Verve Jazz Masters 35 — 1994, FLAC (tracks+.cue), lossless

(Big Band, Swing) Johnny Hodges — Verve Jazz Masters 35 — 1994, FLAC (tracks+.cue), lossless
Треклист:
Жанр: Big Band, Swing
Год издания диска: 1994
Лейбл: Verve
Номер по каталогу: 521 857-2
Аудиокодек: FLAC (*.flac)
Тип рипа: tracks+.cue
Битрейт аудио: lossless
Продолжительность: 78:10
Риппер: smacito
Сканов
Треклист:
01. Jeep's Blues (2:58)
02. Castle Rock (2:52)
03. Passion Flower (3:23)
04. Duke's In Bed (2:56)
05. Little Rabbit Blues (9:25)
06. Early Morning Rock (3:39)
07. Honey Hill (4:07)
08. The Last Time I Saw Paris (2:56)
09. Not So Dukish (7:54)
10. Back Beat (7:30)
11. The Gal From Joe's (2:30)
12. Rosetta (3:37)
13. Don't Sleep In The Subway (3:25)
14. Funky Blues (13:30)
15. Squatty Roo (7:26)  
 
Лог создания рипа
Exact Audio Copy V1.0 beta 1 from 15. November 2010
EAC extraction logfile from 3. June 2011, 13:58
Johnny Hodges / Jazz Masters 35
Used drive  : HL-DT-STDVDRAM GT30N   Adapter: 0  ID: 1
Read mode               : Secure
Utilize accurate stream : Yes
Defeat audio cache      : Yes
Make use of C2 pointers : No
Read offset correction                      : 103
Overread into Lead-In and Lead-Out          : No
Fill up missing offset samples with silence : Yes
Delete leading and trailing silent blocks   : No
Null samples used in CRC calculations       : Yes
Used interface                              : Native Win32 interface for Win NT & 2000
Gap handling                                : Appended to previous track
Used output format              : User Defined Encoder
Selected bitrate                : 1024 kBit/s
Quality                         : High
Add ID3 tag                     : No
Command line compressor         : C:\Exact Audio Copy\Flac\flac.exe
Additional command line options : -V -8 -T "artist=%a" -T "title=%t" -T "album=%g" -T "date=%y" -T "tracknumber=%n" -T "genre=%m" %s
TOC of the extracted CD
     Track |   Start  |  Length  | Start sector | End sector
    ---------------------------------------------------------
        1  |  0:00.00 |  2:58.17 |         0    |    13366
        2  |  2:58.17 |  2:52.25 |     13367    |    26291
        3  |  5:50.42 |  3:22.60 |     26292    |    41501
        4  |  9:13.27 |  2:55.70 |     41502    |    54696
        5  | 12:09.22 |  9:25.13 |     54697    |    97084
        6  | 21:34.35 |  3:39.22 |     97085    |   113531
        7  | 25:13.57 |  4:07.10 |    113532    |   132066
        8  | 29:20.67 |  2:56.13 |    132067    |   145279
        9  | 32:17.05 |  7:54.00 |    145280    |   180829
       10  | 40:11.05 |  7:30.00 |    180830    |   214579
       11  | 47:41.05 |  2:30.12 |    214580    |   225841
       12  | 50:11.17 |  3:37.10 |    225842    |   242126
       13  | 53:48.27 |  3:24.70 |    242127    |   257496
       14  | 57:13.22 | 13:30.13 |    257497    |   318259
       15  | 70:43.35 |  7:26.37 |    318260    |   351746
Track  1
     Filename D:\My Documents\My Music\What.cd project\Johnny Hodges - 1994 - Verve Jazz Masters 35 [FLAC]\01. Johnny Hodges - Jeep's Blues.wav
     Pre-gap length  0:00:02.00
     Peak level 93.8 %
     Extraction speed 1.2 X
     Track quality 100.0 %
     Test CRC 677AC4F1
     Copy CRC 677AC4F1
     Accurately ripped (confidence 4)  [FBB65EA8]
     Copy OK
Track  2
     Filename D:\My Documents\My Music\What.cd project\Johnny Hodges - 1994 - Verve Jazz Masters 35 [FLAC]\02. Johnny Hodges - Castle Rock.wav
     Pre-gap length  0:00:02.80
     Peak level 100.0 %
     Extraction speed 1.1 X
     Track quality 99.9 %
     Test CRC 052751C7
     Copy CRC 052751C7
     Accurately ripped (confidence 4)  [0A54405F]
     Copy OK
Track  3
     Filename D:\My Documents\My Music\What.cd project\Johnny Hodges - 1994 - Verve Jazz Masters 35 [FLAC]\03. Johnny Hodges - Passion Flower.wav
     Pre-gap length  0:00:02.80
     Peak level 83.6 %
     Extraction speed 1.4 X
     Track quality 100.0 %
     Test CRC BF9A6AB5
     Copy CRC BF9A6AB5
     Accurately ripped (confidence 4)  [D834650F]
     Copy OK
Track  4
     Filename D:\My Documents\My Music\What.cd project\Johnny Hodges - 1994 - Verve Jazz Masters 35 [FLAC]\04. Johnny Hodges - Duke's In Bed.wav
     Pre-gap length  0:00:03.93
     Peak level 84.7 %
     Extraction speed 1.4 X
     Track quality 100.0 %
     Test CRC 29E1C754
     Copy CRC 29E1C754
     Accurately ripped (confidence 4)  [DFEE9EE7]
     Copy OK
Track  5
     Filename D:\My Documents\My Music\What.cd project\Johnny Hodges - 1994 - Verve Jazz Masters 35 [FLAC]\05. Johnny Hodges - Little Rabbit Blues.wav
     Pre-gap length  0:00:02.80
     Peak level 100.0 %
     Extraction speed 1.7 X
     Track quality 99.9 %
     Test CRC 8254D4A8
     Copy CRC 8254D4A8
     Accurately ripped (confidence 4)  [39ABEC1F]
     Copy OK
Track  6
     Filename D:\My Documents\My Music\What.cd project\Johnny Hodges - 1994 - Verve Jazz Masters 35 [FLAC]\06. Johnny Hodges - Early Morning Rock.wav
     Pre-gap length  0:00:02.80
     Peak level 83.6 %
     Extraction speed 1.8 X
     Track quality 100.0 %
     Test CRC 8588E80F
     Copy CRC 8588E80F
     Accurately ripped (confidence 4)  [BE81EA05]
     Copy OK
Track  7
     Filename D:\My Documents\My Music\What.cd project\Johnny Hodges - 1994 - Verve Jazz Masters 35 [FLAC]\07. Johnny Hodges - Honey Hill.wav
     Pre-gap length  0:00:02.80
     Peak level 79.4 %
     Extraction speed 1.9 X
     Track quality 100.0 %
     Test CRC 134B42A0
     Copy CRC 134B42A0
     Accurately ripped (confidence 4)  [43DA5547]
     Copy OK
Track  8
     Filename D:\My Documents\My Music\What.cd project\Johnny Hodges - 1994 - Verve Jazz Masters 35 [FLAC]\08. Johnny Hodges - The Last Time I Saw Paris.wav
     Pre-gap length  0:00:02.80
     Peak level 85.5 %
     Extraction speed 1.9 X
     Track quality 100.0 %
     Test CRC 56EFDBA9
     Copy CRC 56EFDBA9
     Accurately ripped (confidence 4)  [ACF24DF5]
     Copy OK
Track  9
     Filename D:\My Documents\My Music\What.cd project\Johnny Hodges - 1994 - Verve Jazz Masters 35 [FLAC]\09. Johnny Hodges - Not So Dukish.wav
     Pre-gap length  0:00:02.80
     Peak level 96.5 %
     Extraction speed 2.2 X
     Track quality 100.0 %
     Test CRC 7FF8E8FC
     Copy CRC 7FF8E8FC
     Accurately ripped (confidence 4)  [D875FD33]
     Copy OK
Track 10
     Filename D:\My Documents\My Music\What.cd project\Johnny Hodges - 1994 - Verve Jazz Masters 35 [FLAC]\10. Johnny Hodges - Back Beat.wav
     Pre-gap length  0:00:02.80
     Peak level 92.5 %
     Extraction speed 2.4 X
     Track quality 100.0 %
     Test CRC 9347BC08
     Copy CRC 9347BC08
     Accurately ripped (confidence 4)  [1EA740E6]
     Copy OK
Track 11
     Filename D:\My Documents\My Music\What.cd project\Johnny Hodges - 1994 - Verve Jazz Masters 35 [FLAC]\11. Johnny Hodges - The Gal From Joe's.wav
     Pre-gap length  0:00:02.80
     Peak level 95.4 %
     Extraction speed 2.1 X
     Track quality 100.0 %
     Test CRC 4014BFA0
     Copy CRC 4014BFA0
     Accurately ripped (confidence 4)  [7CB24655]
     Copy OK
Track 12
     Filename D:\My Documents\My Music\What.cd project\Johnny Hodges - 1994 - Verve Jazz Masters 35 [FLAC]\12. Johnny Hodges - Rosetta.wav
     Pre-gap length  0:00:02.80
     Peak level 97.4 %
     Extraction speed 2.0 X
     Track quality 99.9 %
     Test CRC B41E4216
     Copy CRC B41E4216
     Accurately ripped (confidence 4)  [F5790E26]
     Copy OK
Track 13
     Filename D:\My Documents\My Music\What.cd project\Johnny Hodges - 1994 - Verve Jazz Masters 35 [FLAC]\13. Johnny Hodges - Don't Sleep in The Subway.wav
     Pre-gap length  0:00:02.80
     Peak level 82.0 %
     Extraction speed 2.3 X
     Track quality 100.0 %
     Test CRC 6DD1E0D4
     Copy CRC 6DD1E0D4
     Accurately ripped (confidence 4)  [F1F422DC]
     Copy OK
Track 14
     Filename D:\My Documents\My Music\What.cd project\Johnny Hodges - 1994 - Verve Jazz Masters 35 [FLAC]\14. Johnny Hodges - Funky Blues.wav
     Pre-gap length  0:00:02.46
     Peak level 90.9 %
     Extraction speed 2.8 X
     Track quality 100.0 %
     Test CRC 3FAD90D8
     Copy CRC 3FAD90D8
     Accurately ripped (confidence 4)  [F42DF2EE]
     Copy OK
Track 15
     Filename D:\My Documents\My Music\What.cd project\Johnny Hodges - 1994 - Verve Jazz Masters 35 [FLAC]\15. Johnny Hodges - Squatty Roo.wav
     Pre-gap length  0:00:02.80
     Peak level 78.1 %
     Extraction speed 2.9 X
     Track quality 100.0 %
     Test CRC 241F5613
     Copy CRC 241F5613
     Accurately ripped (confidence 4)  [B5A5FA07]
     Copy OK
All tracks accurately ripped
No errors occurred
End of status report
==== Log checksum 7B48D91D06ECF658A2CE058033EF128F45CB54523EC7EA0A835EA5213D456E11 ====
 
 
Содержание индексной карты (.CUE)
REM GENRE Jazz
REM DATE 1994
REM DISCID BD12510F
REM COMMENT "ExactAudioCopy v1.0b1"
FILE "01. Jeep's Blues.flac" WAVE
  TRACK 01 AUDIO
    INDEX 01 00:00:00
  TRACK 02 AUDIO
    INDEX 00 02:55:32
FILE "02. Castle Rock.flac" WAVE
    INDEX 01 00:00:00
  TRACK 03 AUDIO
    INDEX 00 02:49:40
FILE "03. Passion Flower.flac" WAVE
    INDEX 01 00:00:00
  TRACK 04 AUDIO
    INDEX 00 03:18:65
FILE "04. Duke's In Bed.flac" WAVE
    INDEX 01 00:00:00
  TRACK 05 AUDIO
    INDEX 00 02:53:10
FILE "05. Little Rabbit Blues.flac" WAVE
    INDEX 01 00:00:00
  TRACK 06 AUDIO
    INDEX 00 09:22:28
FILE "06. Early Morning Rock.flac" WAVE
    INDEX 01 00:00:00
  TRACK 07 AUDIO
    INDEX 00 03:36:37
FILE "07. Honey Hill.flac" WAVE
    INDEX 01 00:00:00
  TRACK 08 AUDIO
    INDEX 00 04:04:25
FILE "08. The Last Time I Saw Paris.flac" WAVE
    INDEX 01 00:00:00
  TRACK 09 AUDIO
    INDEX 00 02:53:28
FILE "09. Not So Dukish.flac" WAVE
    INDEX 01 00:00:00
  TRACK 10 AUDIO
    INDEX 00 07:51:15
FILE "10. Back Beat.flac" WAVE
    INDEX 01 00:00:00
  TRACK 11 AUDIO
    INDEX 00 07:27:15
FILE "11. The Gal From Joe's.flac" WAVE
    INDEX 01 00:00:00
  TRACK 12 AUDIO
    INDEX 00 02:27:27
FILE "12. Rosetta.flac" WAVE
    INDEX 01 00:00:00
  TRACK 13 AUDIO
    INDEX 00 03:34:25
FILE "13. Don't Sleep In The Subway.flac" WAVE
    INDEX 01 00:00:00
  TRACK 14 AUDIO
    INDEX 00 03:22:35
FILE "14. Funky Blues.flac" WAVE
    INDEX 01 00:00:00
  TRACK 15 AUDIO
    INDEX 00 13:27:28
FILE "15. Squatty Roo.flac" WAVE
    INDEX 01 00:00:00
 
 
Лог проверки качества
AUDIOCHECKER v2.0 beta (build 457) - by Dester - opdester@freemail.hu
~~~~~~~~~~~~~~~~~~~~~~~~~~~~~~~~~~
-=== DO NOT EDIT THIS FILE! ===-
Path: ...\VJM 35 - Johnny Hodges
01 -=- 01. Jeep's Blues.flac -=- CDDA (100%)
02 -=- 02. Castle Rock.flac -=- CDDA (100%)
03 -=- 03. Passion Flower.flac -=- CDDA (100%)
04 -=- 04. Duke's In Bed.flac -=- CDDA (100%)
05 -=- 05. Little Rabbit Blues.flac -=- CDDA (100%)
06 -=- 06. Early Morning Rock.flac -=- CDDA (100%)
07 -=- 07. Honey Hill.flac -=- CDDA (100%)
08 -=- 08. The Last Time I Saw Paris.flac -=- CDDA (100%)
09 -=- 09. Not So Dukish.flac -=- CDDA (100%)
10 -=- 10. Back Beat.flac -=- CDDA (100%)
11 -=- 11. The Gal From Joe's.flac -=- CDDA (99%)
12 -=- 12. Rosetta.flac -=- CDDA (100%)
13 -=- 13. Don't Sleep In The Subway.flac -=- CDDA (100%)
14 -=- 14. Funky Blues.flac -=- CDDA (100%)
15 -=- 15. Squatty Roo.flac -=- CDDA (100%)
Summary 99,93% CDDA
53149860
 
 
Accurip
[CUETools log; Date: 03.06.2011 20:38:15; Version: 2.0.9]
[CTDB TOCID: XvEsMULZGqs04mnpkf7t8CoZWJ0-] disk not present in database.
[AccurateRip ID: 0024d871-01b01f97-bd12510f] found.
Track   [ CRC    ] Status
 01     [fbb65ea8] (4/9) Accurately ripped
 02     [0a54405f] (4/9) Accurately ripped
 03     [d834650f] (4/9) Accurately ripped
 04     [dfee9ee7] (4/9) Accurately ripped
 05     [39abec1f] (4/9) Accurately ripped
 06     [be81ea05] (4/9) Accurately ripped
 07     [43da5547] (4/9) Accurately ripped
 08     [acf24df5] (4/9) Accurately ripped
 09     [d875fd33] (4/9) Accurately ripped
 10     [1ea740e6] (4/9) Accurately ripped
 11     [7cb24655] (4/9) Accurately ripped
 12     [f5790e26] (4/9) Accurately ripped
 13     [f1f422dc] (4/9) Accurately ripped
 14     [f42df2ee] (4/9) Accurately ripped
 15     [b5a5fa07] (4/8) Accurately ripped
Track Peak [ CRC32  ] [W/O NULL] [  LOG   ]
 --  100,0 [1070DEE4] [93473EED]
 01   93,8 [677AC4F1] [B6CD6946]   CRC32
 02  100,0 [052751C7] [D3BF7E14]   CRC32
 03   83,6 [BF9A6AB5] [EEECE02E]   CRC32
 04   84,7 [29E1C754] [8D1EC1A4]   CRC32
 05  100,0 [8254D4A8] [953D761B]   CRC32
 06   83,6 [8588E80F] [E50927EB]   CRC32
 07   79,4 [134B42A0] [EEA4961F]   CRC32
 08   85,5 [56EFDBA9] [0C8543C4]   CRC32
 09   96,5 [7FF8E8FC] [144EB11A]   CRC32
 10   92,5 [9347BC08] [B7A2C5F9]   CRC32
 11   95,4 [4014BFA0] [58BECF61]   CRC32
 12   97,4 [B41E4216] [70968638]   CRC32
 13   82,0 [6DD1E0D4] [B2A4042E]   CRC32
 14   90,9 [3FAD90D8] [BD7CA20D]   CRC32
 15   78,1 [241F5613] [A13033BC]   CRC32
22:59
675
Нет комментариев. Ваш будет первым!