Поиск

(Big Band, Swing) Woody Herman - Verve Jazz Masters 54 - 1995, FLAC (tracks+.cue), lossless

(Big Band, Swing) Woody Herman - Verve Jazz Masters 54 - 1995, FLAC (tracks+.cue), lossless
Треклист:
Жанр: Big Band, Swing
Год издания: 1996
Издатель (лейбл): Verve
Аудиокодек: FLAC (*.flac)
Тип рипа: tracks+.cue
Битрейт аудио: lossless
Продолжительность: 68:11
Источник: вата
Сканов
Треклист:
01. Don't Get Around Much Anymore (4:21)
02. Sister Sadie (3:30)
03. Camel Walk (8:17)
04. Body And Soul (5:12)
05. Better Get It In Your Soul (5:45)
06. Jazz Me Blues (3:04)
07. Caldonia (8:07)
08. The Good Earth (2:32)
09. Deep Purple (3:49)
10. Cousins (5:52)
11. Just Squeeze Me (But Don't Tease Me) (5:02)
12. Dr. Wong's Bag (6:44)
13. Dear John C. (5:54)
 
 
Лог создания рипа
Exact Audio Copy V1.0 beta 1 from 15. November 2010
EAC extraction logfile from 22. March 2011, 0:32
Woody Herman / Jazz Masters 54
Used drive  : SONY    DVD-ROM DDU1615   Adapter: 1  ID: 1
Read mode               : Secure
Utilize accurate stream : Yes
Defeat audio cache      : Yes
Make use of C2 pointers : No
Read offset correction                      : 6
Overread into Lead-In and Lead-Out          : No
Fill up missing offset samples with silence : Yes
Delete leading and trailing silent blocks   : No
Null samples used in CRC calculations       : Yes
Used interface                              : Native Win32 interface for Win NT & 2000
Gap handling                                : Appended to previous track
Used output format              : User Defined Encoder
Selected bitrate                : 320 kBit/s
Quality                         : High
Add ID3 tag                     : No
Command line compressor         : C:\Program Files (x86)\Exact Audio Copy\Flac\flac.exe
Additional command line options : -V -8 -T "artist=%a" -T "title=%t" -T "album=%g" -T "date=%y" -T "tracknumber=%n" -T "genre=%m" %s
TOC of the extracted CD
     Track |   Start  |  Length  | Start sector | End sector
    ---------------------------------------------------------
        1  |  0:00.00 |  4:20.72 |         0    |    19571
        2  |  4:20.72 |  3:30.20 |     19572    |    35341
        3  |  7:51.17 |  8:17.35 |     35342    |    72651
        4  | 16:08.52 |  5:12.03 |     72652    |    96054
        5  | 21:20.55 |  5:45.15 |     96055    |   121944
        6  | 27:05.70 |  3:04.00 |    121945    |   135744
        7  | 30:09.70 |  8:07.25 |    135745    |   172294
        8  | 38:17.20 |  2:31.72 |    172295    |   183691
        9  | 40:49.17 |  3:48.70 |    183692    |   200861
       10  | 44:38.12 |  5:52.35 |    200862    |   227296
       11  | 50:30.47 |  5:02.23 |    227297    |   249969
       12  | 55:32.70 |  6:43.40 |    249970    |   280234
       13  | 62:16.35 |  5:54.20 |    280235    |   306804
Track  1
     Filename C:\Rips\Woody Herman - 1996 - Jazz Masters 54 [FLAC]\01 - Don't Get Around Much Anymore.wav
     Pre-gap length  0:00:02.00
     Peak level 92.2 %
     Extraction speed 15.8 X
     Track quality 100.0 %
     Test CRC 33CFC5F6
     Copy CRC 33CFC5F6
     Track not present in AccurateRip database
     Copy OK
Track  2
     Filename C:\Rips\Woody Herman - 1996 - Jazz Masters 54 [FLAC]\02 - Sister Sadie.wav
     Pre-gap length  0:00:02.93
     Peak level 86.5 %
     Extraction speed 12.5 X
     Track quality 100.0 %
     Test CRC DFABFF0F
     Copy CRC DFABFF0F
     Track not present in AccurateRip database
     Copy OK
Track  3
     Filename C:\Rips\Woody Herman - 1996 - Jazz Masters 54 [FLAC]\03 - Camel Walk.wav
     Pre-gap length  0:00:02.86
     Peak level 83.7 %
     Extraction speed 10.5 X
     Track quality 100.0 %
     Test CRC 8A57567E
     Copy CRC 8A57567E
     Track not present in AccurateRip database
     Copy OK
Track  4
     Filename C:\Rips\Woody Herman - 1996 - Jazz Masters 54 [FLAC]\04 - Body And Soul.wav
     Pre-gap length  0:00:02.80
     Peak level 100.0 %
     Extraction speed 10.7 X
     Track quality 100.0 %
     Test CRC 4E60FF70
     Copy CRC 4E60FF70
     Track not present in AccurateRip database
     Copy OK
Track  5
     Filename C:\Rips\Woody Herman - 1996 - Jazz Masters 54 [FLAC]\05 - Better Get It In Your Soul.wav
     Pre-gap length  0:00:02.86
     Peak level 84.2 %
     Extraction speed 11.3 X
     Track quality 100.0 %
     Test CRC DCD1BCA7
     Copy CRC DCD1BCA7
     Track not present in AccurateRip database
     Copy OK
Track  6
     Filename C:\Rips\Woody Herman - 1996 - Jazz Masters 54 [FLAC]\06 - Jazz Me Blues.wav
     Pre-gap length  0:00:02.90
     Peak level 100.0 %
     Extraction speed 9.4 X
     Track quality 100.0 %
     Test CRC 43F3460B
     Copy CRC 43F3460B
     Track not present in AccurateRip database
     Copy OK
Track  7
     Filename C:\Rips\Woody Herman - 1996 - Jazz Masters 54 [FLAC]\07 - Caldonia.wav
     Pre-gap length  0:00:02.84
     Peak level 92.1 %
     Extraction speed 12.7 X
     Track quality 100.0 %
     Test CRC 6FEE2F8E
     Copy CRC 6FEE2F8E
     Track not present in AccurateRip database
     Copy OK
Track  8
     Filename C:\Rips\Woody Herman - 1996 - Jazz Masters 54 [FLAC]\08 - The Good Earth.wav
     Pre-gap length  0:00:02.86
     Peak level 89.4 %
     Extraction speed 11.8 X
     Track quality 100.0 %
     Test CRC 2A12CF43
     Copy CRC 2A12CF43
     Track not present in AccurateRip database
     Copy OK
Track  9
     Filename C:\Rips\Woody Herman - 1996 - Jazz Masters 54 [FLAC]\09 - Deep Purple.wav
     Pre-gap length  0:00:02.80
     Peak level 93.5 %
     Extraction speed 12.9 X
     Track quality 100.0 %
     Test CRC 8CE7AC59
     Copy CRC 8CE7AC59
     Track not present in AccurateRip database
     Copy OK
Track 10
     Filename C:\Rips\Woody Herman - 1996 - Jazz Masters 54 [FLAC]\10 - Cousins.wav
     Pre-gap length  0:00:02.86
     Peak level 94.6 %
     Extraction speed 13.8 X
     Track quality 100.0 %
     Test CRC D555FF3F
     Copy CRC D555FF3F
     Track not present in AccurateRip database
     Copy OK
Track 11
     Filename C:\Rips\Woody Herman - 1996 - Jazz Masters 54 [FLAC]\11 - Just Squeeze Me (But Don't Tease Me).wav
     Pre-gap length  0:00:02.82
     Peak level 100.0 %
     Extraction speed 14.1 X
     Track quality 100.0 %
     Test CRC E048D464
     Copy CRC E048D464
     Track not present in AccurateRip database
     Copy OK
Track 12
     Filename C:\Rips\Woody Herman - 1996 - Jazz Masters 54 [FLAC]\12 - Dr. Wong's Bag.wav
     Pre-gap length  0:00:02.90
     Peak level 100.0 %
     Extraction speed 15.0 X
     Track quality 100.0 %
     Test CRC 9D4C02D9
     Copy CRC 9D4C02D9
     Track not present in AccurateRip database
     Copy OK
Track 13
     Filename C:\Rips\Woody Herman - 1996 - Jazz Masters 54 [FLAC]\13 - Dear John C..wav
     Pre-gap length  0:00:02.86
     Peak level 100.0 %
     Extraction speed 15.2 X
     Track quality 100.0 %
     Test CRC AD398293
     Copy CRC AD398293
     Track not present in AccurateRip database
     Copy OK
None of the tracks are present in the AccurateRip database
No errors occurred
End of status report
 
 
Содержание индексной карты (.CUE)
REM GENRE Jazz
REM DATE 1996
REM DISCID AE0FFA0D
REM COMMENT "ExactAudioCopy v1.0b1"
PERFORMER "Woody Herman"
TITLE "Woody Herman - Verve Jazz Masters 54"
FILE "01. Don't Get Around Much Anymore.flac" WAVE
  TRACK 01 AUDIO
    INDEX 01 00:00:00
  TRACK 02 AUDIO
    INDEX 00 04:18:02
FILE "02. Sister Sadie.flac" WAVE
    INDEX 01 00:00:00
  TRACK 03 AUDIO
    INDEX 00 03:27:30
FILE "03. Camel Walk.flac" WAVE
    INDEX 01 00:00:00
  TRACK 04 AUDIO
    INDEX 00 08:14:50
FILE "04. Body And Soul.flac" WAVE
    INDEX 01 00:00:00
  TRACK 05 AUDIO
    INDEX 00 05:09:13
FILE "05. Better Get It In Your Soul.flac" WAVE
    INDEX 01 00:00:00
  TRACK 06 AUDIO
    INDEX 00 05:42:22
FILE "06. Jazz Me Blues.flac" WAVE
    INDEX 01 00:00:00
  TRACK 07 AUDIO
    INDEX 00 03:01:12
FILE "07. Caldonia.flac" WAVE
    INDEX 01 00:00:00
  TRACK 08 AUDIO
    INDEX 00 08:04:35
FILE "08. The Good Earth.flac" WAVE
    INDEX 01 00:00:00
  TRACK 09 AUDIO
    INDEX 00 02:29:12
FILE "09. Deep Purple.flac" WAVE
    INDEX 01 00:00:00
  TRACK 10 AUDIO
    INDEX 00 03:46:05
FILE "10. Cousins.flac" WAVE
    INDEX 01 00:00:00
  TRACK 11 AUDIO
    INDEX 00 05:49:48
FILE "11. Just Squeeze Me (But Don't Tease Me).flac" WAVE
    INDEX 01 00:00:00
  TRACK 12 AUDIO
    INDEX 00 04:59:30
FILE "12. Dr. Wong's Bag.flac" WAVE
    INDEX 01 00:00:00
  TRACK 13 AUDIO
    INDEX 00 06:40:50
FILE "13. Dear John C..flac" WAVE
    INDEX 01 00:00:00
03:57
639
Нет комментариев. Ваш будет первым!