Поиск

(Bop) [CD] Wynton Kelly - Wynton Kelly! (Japan 2CD) - 1991 (1961), FLAC (image+.cue), lossless

(Bop) [CD] Wynton Kelly - Wynton Kelly! (Japan 2CD) - 1991 (1961), FLAC (image+.cue), lossless
Wynton Kelly / Wynton Kelly! (Japan 2CD)
Жанр: Bop
Носитель: CD
Страна-производитель диска (релиза): Japan
Год издания: 1991 (1961)
Издатель (лейбл): Vee Jay
Номер по каталогу: FHCY 1005/6
Страна исполнителя (группы): USA
Аудиокодек: FLAC (*.flac)
Тип рипа: image+.cue
Битрейт аудио: lossless
Продолжительность: 89:03
Источник (релизер): собственный рип
Наличие сканов в содержимом раздачи: да
 
Disc 1
1. Come Rain or Come Shine
2. Make the Man Love Me
3. Autumn Leaves
4. The Surrey With the Fringe on Top
5. Joe's Avenue" aka "Scotch and Water
6. Sassy
7. Love, I've Found You
8. Gone with the Wind
 
 
Log
Exact Audio Copy V1.0 beta 6 from 9. April 2015
Отчёт EAC об извлечении, выполненном 7. июня 2017, 0:07
Wynton Kelly / Autumn Leaves
Дисковод: MATSHITADVD-RAM UJ8B1AS   Adapter: 1  ID: 0
Режим чтения                 : Достоверность
Использование точного потока : Да
Отключение кэша аудио        : Да
Использование указателей C2  : Нет
Коррекция смещения при чтении                     : 6
Способность читать области Lead-in и Lead-out     : Нет
Заполнение пропущенных сэмплов тишиной            : Да
Удаление блоков с тишиной в начале и конце        : Нет
При вычислениях CRC использовались нулевые сэмплы : Да
Интерфейс                                         : Встроенный Win32-интерфейс для Win NT/2000
Выходной формат          : Пользовательский кодировщик
Выбранный битрейт        : 128 kBit/s
Качество                 : Высокий
Добавление ID3-тега      : Нет
Утилита сжатия           : C:\Program Files (x86)\Exact Audio Copy\Flac\flac.exe
Дополнительные параметры : -V -8 -T "Date=%year%" -T "Genre=%genre%" %source%
TOC извлечённого CD
     Трек |   Старт  | Длительность | Начальный сектор | Конечный сектор
    ---------------------------------------------------------------------
       1  |  0:00.00 |    5:54.72   |           0      |      26621
       2  |  5:54.72 |    3:40.25   |       26622      |      43146
       3  |  9:35.22 |    6:12.03   |       43147      |      71049
       4  | 15:47.25 |    3:50.15   |       71050      |      88314
       5  | 19:37.40 |    2:51.62   |       88315      |     101201
       6  | 22:29.27 |    5:12.23   |      101202      |     124624
       7  | 27:41.50 |    2:37.30   |      124625      |     136429
       8  | 30:19.05 |    4:14.10   |      136430      |     155489
Характеристики диапазона извлечения и сообщения об ошибках
Выбранный диапазон
     Имя файла C:\Users\Alex\Downloads\Wynton Kelly - Autumn Leaves\1\Wynton Kelly - Autumn Leaves.wav
     Пиковый уровень 99.8 %
     Скорость извлечения 1.8 X
     Качество диапазона 100.0 %
     CRC теста 5AC36731
     CRC копии 5AC36731
     Копирование... OK
Ошибок не произошло
AccurateRip: сводка
Трек  1  : извлечено точно (доверие 4)  [9CAAAF17]  (AR v2)
Трек  2  : извлечено точно (доверие 4)  [61090F77]  (AR v2)
Трек  3  : извлечено точно (доверие 4)  [D45E7C83]  (AR v2)
Трек  4  : извлечено точно (доверие 4)  [2E6E9FCF]  (AR v2)
Трек  5  : извлечено точно (доверие 4)  [812D0819]  (AR v2)
Трек  6  : извлечено точно (доверие 4)  [B30BEB88]  (AR v2)
Трек  7  : извлечено точно (доверие 4)  [1221A4CE]  (AR v2)
Трек  8  : извлечено точно (доверие 4)  [825E9784]  (AR v2)
Все треки извлечены точно
Конец отчёта
==== Контрольная сумма отчёта A121D2C36894B5C0CE6E4477C07B65CAC86117EB04412791CF24E5F53A807266 ====
 
 
Disc 2
1. Autumn Leaves (Take 1)
2. Autumn Leaves (Take 2)
3. Autumn Leaves (Take 3)
4. Char's Blues (Take 1)
5. Char's Blues (Take 2)
6. Char's Blues
7. Joe's Avenue (Take 1)
8. Joe's Avenue (Take 4)
9. Joe's Avenue (Take 8)
10. Joe's Avenue (Take 9)
11. Someday My Prince Will Come (Take 5)
12. Someday My Prince Will Come (Take 6)
13. Come Rain Come Shine (Mono)
 
 
Log
Exact Audio Copy V1.0 beta 6 from 9. April 2015
Отчёт EAC об извлечении, выполненном 7. июня 2017, 1:08
Wynton Kelly / Autumn Leaves Disc 2
Дисковод: MATSHITADVD-RAM UJ8B1AS   Adapter: 1  ID: 0
Режим чтения                 : Достоверность
Использование точного потока : Да
Отключение кэша аудио        : Да
Использование указателей C2  : Нет
Коррекция смещения при чтении                     : 6
Способность читать области Lead-in и Lead-out     : Нет
Заполнение пропущенных сэмплов тишиной            : Да
Удаление блоков с тишиной в начале и конце        : Нет
При вычислениях CRC использовались нулевые сэмплы : Да
Интерфейс                                         : Встроенный Win32-интерфейс для Win NT/2000
Выходной формат          : Пользовательский кодировщик
Выбранный битрейт        : 128 kBit/s
Качество                 : Высокий
Добавление ID3-тега      : Нет
Утилита сжатия           : C:\Program Files (x86)\Exact Audio Copy\Flac\flac.exe
Дополнительные параметры : -V -8 -T "Date=%year%" -T "Genre=%genre%" %source%
TOC извлечённого CD
     Трек |   Старт  | Длительность | Начальный сектор | Конечный сектор
    ---------------------------------------------------------------------
       1  |  0:00.00 |    8:24.50   |           0      |      37849
       2  |  8:24.50 |    4:25.52   |       37850      |      57776
       3  | 12:50.27 |    4:27.13   |       57777      |      77814
       4  | 17:17.40 |    4:58.02   |       77815      |     100166
       5  | 22:15.42 |    5:54.55   |      100167      |     126771
       6  | 28:10.22 |    5:50.48   |      126772      |     153069
       7  | 34:00.70 |    6:39.12   |      153070      |     183006
       8  | 40:40.07 |    3:44.50   |      183007      |     199856
       9  | 44:24.57 |    2:59.48   |      199857      |     213329
      10  | 47:24.30 |    3:45.45   |      213330      |     230249
      11  | 51:10.00 |    3:02.65   |      230250      |     243964
      12  | 54:12.65 |    3:43.05   |      243965      |     260694
      13  | 57:55.70 |    3:33.05   |      260695      |     276674
Характеристики диапазона извлечения и сообщения об ошибках
Выбранный диапазон
     Имя файла C:\Users\Alex\Downloads\Wynton Kelly - Autumn Leaves\2\Wynton Kelly - Autumn Leaves Disc 2.wav
     Пиковый уровень 100.0 %
     Скорость извлечения 2.1 X
     Качество диапазона 100.0 %
     CRC теста 3C352FD4
     CRC копии 3C352FD4
     Копирование... OK
Ошибок не произошло
AccurateRip: сводка
Трек  1  : извлечено точно (доверие 2)  [04F4263B]  (AR v2)
Трек  2  : извлечено точно (доверие 2)  [8992C7E7]  (AR v2)
Трек  3  : извлечено точно (доверие 2)  [569C9EF1]  (AR v2)
Трек  4  : извлечено точно (доверие 2)  [EAC1604E]  (AR v2)
Трек  5  : извлечено точно (доверие 2)  [D6AF71A9]  (AR v2)
Трек  6  : извлечено точно (доверие 2)  [51EB2C58]  (AR v2)
Трек  7  : извлечено точно (доверие 2)  [9924DB25]  (AR v2)
Трек  8  : извлечено точно (доверие 2)  [1FD896CB]  (AR v2)
Трек  9  : извлечено точно (доверие 2)  [77522E58]  (AR v2)
Трек 10  : извлечено точно (доверие 2)  [31F656A3]  (AR v2)
Трек 11  : извлечено точно (доверие 2)  [DD8DD178]  (AR v2)
Трек 12  : извлечено точно (доверие 2)  [5B2A1016]  (AR v2)
Трек 13  : извлечено точно (доверие 2)  [E459D5B2]  (AR v2)
Все треки извлечены точно
Конец отчёта
==== Контрольная сумма отчёта D15AB3100EE43B6153EABC4B308158909E1C18BD750FFBD31433A8716632644D ====
03:45
653
Нет комментариев. Ваш будет первым!