Поиск

(Bop) Charlie Byrd, Herb Ellis, Mundell Lowe with Larry Coryell - The Return Of The Great Guitars - 1996, FLAC (tracks+.cue), lossless

(Bop) Charlie Byrd, Herb Ellis, Mundell Lowe with Larry Coryell - The Return Of The Great Guitars - 1996, FLAC (tracks+.cue), lossless
Charlie Byrd, Herb Ellis, Mundell Lowe with Larry Coryell / The Return Of The Great Guitars
Жанр: Bop
Страна-производитель диска: USA
Год издания: 1996
Издатель (лейбл): Concord Jazz
Номер по каталогу: CCD-4715
Страна исполнителя (группы): USA
Аудиокодек: FLAC (*.flac)
Тип рипа: tracks+.cue
Битрейт аудио: lossless
Продолжительность: 0:59:24.
Источник (релизер): clustert
Наличие сканов в содержимом раздачи: да
Треклист:
01. Things Aint What They Used To Be [0:04:54.19]
02. When Lights Are Low [0:04:15.68]
03. A Smooth One [0:04:29.60]
04. My Funny Valentine [0:05:14.27]
05. The Lady In Red [0:04:25.04]
06. Soft Winds [0:03:51.53]
07. Bernies Tune [0:04:26.24]
08. I Remember You [0:04:45.08]
09. Waltz For Wes [0:04:32.04]
10. Seven Come Eleven [0:04:36.56]
11. Billy Bean [0:04:29.63]
12. Nigh Roby Get-a-way [0:04:35.03]
13. On The Trail [0:04:48.19]
 
Лог создания рипа
Exact Audio Copy V1.0 beta 3 from 29. August 2011
Отчёт EAC об извлечении, выполненном 23. октября 2014, 23:03
Charlie Byrd, Herb Ellis, Mundell Lowe / The Return Of The Great Guitars
Дисковод: ASUS    DRW-1814BLT   Adapter: 4  ID: 0
Режим чтения                 : Достоверность
Использование точного потока : Да
Отключение кэша аудио        : Да
Использование указателей C2  : Нет
Коррекция смещения при чтении                     : 6
Способность читать области Lead-in и Lead-out     : Нет
Заполнение пропущенных сэмплов тишиной            : Да
Удаление блоков с тишиной в начале и конце        : Нет
При вычислениях CRC использовались нулевые сэмплы : Да
Интерфейс                                         : Встроенный Win32-интерфейс для Win NT/2000
Обработка зазоров                                 : Добавлено к предыдущему треку
Выходной формат          : Пользовательский кодировщик
Выбранный битрейт        : 128 kBit/s
Качество                 : Высокий
Добавление ID3-тега      : Нет
Утилита сжатия           : C:\Program Files\Exact Audio Copy\Flac\flac.exe
Дополнительные параметры :  -V -8 -T "Genre=%genre%" -T "Artist=%artist%" -T "Title=%title%" -T "Album=%albumtitle%" -T "Date=%year%" -T "Tracknumber=%tracknr%" -T "Comment=EAC1.0b2 FLAC -8" %source%
TOC извлечённого CD
     Трек |   Старт  | Длительность | Начальный сектор | Конечный сектор
    ---------------------------------------------------------------------
       1  |  0:00.00 |    4:54.19   |           0      |      22068
       2  |  4:54.19 |    4:15.68   |       22069      |      41261
       3  |  9:10.12 |    4:29.60   |       41262      |      61496
       4  | 13:39.72 |    5:14.27   |       61497      |      85073
       5  | 18:54.24 |    4:25.04   |       85074      |     104952
       6  | 23:19.28 |    3:51.53   |      104953      |     122330
       7  | 27:11.06 |    4:26.24   |      122331      |     142304
       8  | 31:37.30 |    4:45.08   |      142305      |     163687
       9  | 36:22.38 |    4:32.04   |      163688      |     184091
      10  | 40:54.42 |    4:36.56   |      184092      |     204847
      11  | 45:31.23 |    4:29.63   |      204848      |     225085
      12  | 50:01.11 |    4:35.03   |      225086      |     245713
      13  | 54:36.14 |    4:48.19   |      245714      |     267332
Трек  1
     Имя файла R:\Раздача 26\Charlie Byrd, Herb Ellis, Mundell Lowe with Larry Coryell - 1996 - The Return Of The Great Guitars\01 Things Aint What They Used To Be.wav
     Длина предзазора  0:00:02.00
     Пиковый уровень 97.2 %
     Скорость извлечения 5.3 X
     Качество трека 100.0 %
     CRC теста 0D5443B8
     CRC копии 0D5443B8
     Трек не обнаружен в базе AccurateRip
     Копирование... OK
Трек  2
     Имя файла R:\Раздача 26\Charlie Byrd, Herb Ellis, Mundell Lowe with Larry Coryell - 1996 - The Return Of The Great Guitars\02 When Lights Are Low.wav
     Длина предзазора  0:00:01.26
     Пиковый уровень 96.4 %
     Скорость извлечения 5.7 X
     Качество трека 100.0 %
     CRC теста BCE7C067
     CRC копии BCE7C067
     Трек не обнаружен в базе AccurateRip
     Копирование... OK
Трек  3
     Имя файла R:\Раздача 26\Charlie Byrd, Herb Ellis, Mundell Lowe with Larry Coryell - 1996 - The Return Of The Great Guitars\03 A Smooth One.wav
     Длина предзазора  0:00:01.02
     Пиковый уровень 97.5 %
     Скорость извлечения 6.3 X
     Качество трека 100.0 %
     CRC теста 139FCBAC
     CRC копии 139FCBAC
     Трек не обнаружен в базе AccurateRip
     Копирование... OK
Трек  4
     Имя файла R:\Раздача 26\Charlie Byrd, Herb Ellis, Mundell Lowe with Larry Coryell - 1996 - The Return Of The Great Guitars\04 My Funny Valentine.wav
     Длина предзазора  0:00:01.16
     Пиковый уровень 83.9 %
     Скорость извлечения 5.4 X
     Качество трека 99.9 %
     CRC теста 54B80FB0
     CRC копии 54B80FB0
     Трек не обнаружен в базе AccurateRip
     Копирование... OK
Трек  5
     Имя файла R:\Раздача 26\Charlie Byrd, Herb Ellis, Mundell Lowe with Larry Coryell - 1996 - The Return Of The Great Guitars\05 The Lady In Red.wav
     Длина предзазора  0:00:01.11
     Пиковый уровень 97.5 %
     Скорость извлечения 7.3 X
     Качество трека 100.0 %
     CRC теста A71FF2F3
     CRC копии A71FF2F3
     Трек не обнаружен в базе AccurateRip
     Копирование... OK
Трек  6
     Имя файла R:\Раздача 26\Charlie Byrd, Herb Ellis, Mundell Lowe with Larry Coryell - 1996 - The Return Of The Great Guitars\06 Soft Winds.wav
     Длина предзазора  0:00:01.13
     Пиковый уровень 97.2 %
     Скорость извлечения 5.7 X
     Качество трека 99.9 %
     CRC теста 822D44D4
     CRC копии 822D44D4
     Трек не обнаружен в базе AccurateRip
     Копирование... OK
Трек  7
     Имя файла R:\Раздача 26\Charlie Byrd, Herb Ellis, Mundell Lowe with Larry Coryell - 1996 - The Return Of The Great Guitars\07 Bernies Tune.wav
     Длина предзазора  0:00:01.13
     Пиковый уровень 99.6 %
     Скорость извлечения 8.0 X
     Качество трека 100.0 %
     CRC теста 44A7E644
     CRC копии 44A7E644
     Трек не обнаружен в базе AccurateRip
     Копирование... OK
Трек  8
     Имя файла R:\Раздача 26\Charlie Byrd, Herb Ellis, Mundell Lowe with Larry Coryell - 1996 - The Return Of The Great Guitars\08 I Remember You.wav
     Длина предзазора  0:00:01.15
     Пиковый уровень 73.9 %
     Скорость извлечения 8.5 X
     Качество трека 100.0 %
     CRC теста 70152B93
     CRC копии 70152B93
     Трек не обнаружен в базе AccurateRip
     Копирование... OK
Трек  9
     Имя файла R:\Раздача 26\Charlie Byrd, Herb Ellis, Mundell Lowe with Larry Coryell - 1996 - The Return Of The Great Guitars\09 Waltz For Wes.wav
     Длина предзазора  0:00:01.03
     Пиковый уровень 95.4 %
     Скорость извлечения 8.8 X
     Качество трека 100.0 %
     CRC теста 1805BF50
     CRC копии 1805BF50
     Трек не обнаружен в базе AccurateRip
     Копирование... OK
Трек 10
     Имя файла R:\Раздача 26\Charlie Byrd, Herb Ellis, Mundell Lowe with Larry Coryell - 1996 - The Return Of The Great Guitars\10 Seven Come Eleven.wav
     Длина предзазора  0:00:01.32
     Пиковый уровень 97.9 %
     Скорость извлечения 9.0 X
     Качество трека 100.0 %
     CRC теста 4983A506
     CRC копии 4983A506
     Трек не обнаружен в базе AccurateRip
     Копирование... OK
Трек 11
     Имя файла R:\Раздача 26\Charlie Byrd, Herb Ellis, Mundell Lowe with Larry Coryell - 1996 - The Return Of The Great Guitars\11 Billy Bean.wav
     Длина предзазора  0:00:01.42
     Пиковый уровень 97.5 %
     Скорость извлечения 9.5 X
     Качество трека 100.0 %
     CRC теста A0BDD551
     CRC копии A0BDD551
     Трек не обнаружен в базе AccurateRip
     Копирование... OK
Трек 12
     Имя файла R:\Раздача 26\Charlie Byrd, Herb Ellis, Mundell Lowe with Larry Coryell - 1996 - The Return Of The Great Guitars\12 Nigh Roby Get-a-way.wav
     Длина предзазора  0:00:01.12
     Пиковый уровень 95.4 %
     Скорость извлечения 9.8 X
     Качество трека 100.0 %
     CRC теста C2AA8A8E
     CRC копии C2AA8A8E
     Трек не обнаружен в базе AccurateRip
     Копирование... OK
Трек 13
     Имя файла R:\Раздача 26\Charlie Byrd, Herb Ellis, Mundell Lowe with Larry Coryell - 1996 - The Return Of The Great Guitars\13 On The Trail.wav
     Длина предзазора  0:00:01.09
     Пиковый уровень 81.5 %
     Скорость извлечения 10.1 X
     Качество трека 100.0 %
     CRC теста 1A28C18F
     CRC копии 1A28C18F
     Трек не обнаружен в базе AccurateRip
     Копирование... OK
Ни одного трека нет в базе AccurateRip
Ошибок не произошло
Конец отчёта
==== Контрольная сумма отчёта 59466C190EF910CC91769C4E1C38A2C91C21BAD8B5B8FB57B402B27351DB918C ====
 
 
Содержание индексной карты (.CUE)
REM GENRE Jazz
REM DATE 1996
REM DISCID AC0DEC0D
REM COMMENT "ExactAudioCopy v1.0b3"
PERFORMER "Charlie Byrd, Herb Ellis, Mundell Lowe"
TITLE "The Return Of The Great Guitars"
FILE "01 Things Aint What They Used To Be.wav" WAVE
  TRACK 01 AUDIO
    TITLE "Things Aint What They Used To Be"
    PERFORMER "Charlie Byrd, Herb Ellis, Mundell Lowe"
    INDEX 01 00:00:00
  TRACK 02 AUDIO
    TITLE "When Lights Are Low"
    PERFORMER "Charlie Byrd, Herb Ellis, Mundell Lowe"
    INDEX 00 04:52:68
FILE "02 When Lights Are Low.wav" WAVE
    INDEX 01 00:00:00
  TRACK 03 AUDIO
    TITLE "A Smooth One"
    PERFORMER "Charlie Byrd, Herb Ellis, Mundell Lowe"
    INDEX 00 04:14:66
FILE "03 A Smooth One.wav" WAVE
    INDEX 01 00:00:00
  TRACK 04 AUDIO
    TITLE "My Funny Valentine"
    PERFORMER "Charlie Byrd, Herb Ellis, Mundell Lowe"
    INDEX 00 04:28:44
FILE "04 My Funny Valentine.wav" WAVE
    INDEX 01 00:00:00
  TRACK 05 AUDIO
    TITLE "The Lady In Red"
    PERFORMER "Charlie Byrd, Herb Ellis, Mundell Lowe"
    INDEX 00 05:13:16
FILE "05 The Lady In Red.wav" WAVE
    INDEX 01 00:00:00
  TRACK 06 AUDIO
    TITLE "Soft Winds"
    PERFORMER "Charlie Byrd, Herb Ellis, Mundell Lowe"
    INDEX 00 04:23:66
FILE "06 Soft Winds.wav" WAVE
    INDEX 01 00:00:00
  TRACK 07 AUDIO
    TITLE "Bernies Tune"
    PERFORMER "Charlie Byrd, Herb Ellis, Mundell Lowe"
    INDEX 00 03:50:40
FILE "07 Bernies Tune.wav" WAVE
    INDEX 01 00:00:00
  TRACK 08 AUDIO
    TITLE "I Remember You"
    PERFORMER "Charlie Byrd, Herb Ellis, Mundell Lowe"
    INDEX 00 04:25:09
FILE "08 I Remember You.wav" WAVE
    INDEX 01 00:00:00
  TRACK 09 AUDIO
    TITLE "Waltz For Wes"
    PERFORMER "Charlie Byrd, Herb Ellis, Mundell Lowe"
    INDEX 00 04:44:05
FILE "09 Waltz For Wes.wav" WAVE
    INDEX 01 00:00:00
  TRACK 10 AUDIO
    TITLE "Seven Come Eleven"
    PERFORMER "Charlie Byrd, Herb Ellis, Mundell Lowe"
    INDEX 00 04:30:47
FILE "10 Seven Come Eleven.wav" WAVE
    INDEX 01 00:00:00
  TRACK 11 AUDIO
    TITLE "Billy Bean"
    PERFORMER "Charlie Byrd, Herb Ellis, Mundell Lowe"
    INDEX 00 04:35:14
FILE "11 Billy Bean.wav" WAVE
    INDEX 01 00:00:00
  TRACK 12 AUDIO
    TITLE "Nigh Roby Get-a-way"
    PERFORMER "Charlie Byrd, Herb Ellis, Mundell Lowe"
    INDEX 00 04:28:51
FILE "12 Nigh Roby Get-a-way.wav" WAVE
    INDEX 01 00:00:00
  TRACK 13 AUDIO
    TITLE "On The Trail"
    PERFORMER "Charlie Byrd, Herb Ellis, Mundell Lowe"
    INDEX 00 04:33:69
FILE "13 On The Trail.wav" WAVE
    INDEX 01 00:00:00
Скачивание доступно после регистрации!!
Приватный:
Нет (DHT включён)
Размер:
337.41 Мб (353,794,825 байт) » файлов: 24
Участники:
0 раздают, 0 качают (0 участников всего)
Внешние участники:
5 раздают, 1 качают (6 участников всего) [ Обновить ]
12:40
715
Нет комментариев. Ваш будет первым!