Поиск

(Bop) Charlie Parker — Verve Jazz Masters 28: Plays Standards - 1994, FLAC (tracks+.cue), lossless

(Bop) Charlie Parker — Verve Jazz Masters 28: Plays Standards - 1994, FLAC (tracks+.cue), lossless
Треклист:
Charlie Parker — Verve Jazz Masters 28: Plays Standards
Жанр: Bop
Год выпуска диска: 1994
Label: Verve
Аудио кодек: FLAC
Тип рипа: tracks+.cue
Битрейт аудио: lossless
Продолжительность: 66:48
Трэклист:
01. Love For Sale (5:37)
02. If I Should Lose You (2:49)
03. Almost Like Being In Love (2:36)
04. Why Do I Love You? (3:09)
05. I Remember You (3:06)
06. Easy To Love (2:22)
07. Old Folks (3:37)
08. I Got Rhythm (12:57)
09. Laura (3:00)
10. Estrellita (Little Star) (2:49)
11. What Is This Thing Called Love? (2:39)
12. Embraceable You (10:36)
13. I Love Paris (5:10)
14. How High The Moon? (6:22)
Источник: what.cd
Сканы: 200 dpi
 
Отчет ЕАС
EAC extraction logfile from 30. March 2008, 21:04 for CD
Charlie Parker / Jazz Masters 28 - Charlie Parker Plays Standards
Used drive  : LITE-ON LTR-24102B   Adapter: 1  ID: 1
Read mode   : Secure with NO C2, accurate stream, disable cache
Read offset correction : 12
Overread into Lead-In and Lead-Out : No
Used output format : C:\Program Files\FLAC\bin\flac.exe   (User Defined Encoder)
                     320 kBit/s
                     Additional command line options : -V -8 -T "artist=%a" -T "title=%t" -T "album=%g" -T "date=%y" -T "tracknumber=%n" -T "genre=%m" %s
Other options      :
    Fill up missing offset samples with silence : Yes
    Delete leading and trailing silent blocks : No
    Installed external ASPI interface
Track  1
     Filename D:\New_Rips\Jazz Masters\Charlie Parker\01 - Love For Sale.wav
     Pre-gap length  0:00:02.00
     Peak level 86.7 %
     Track quality 99.9 %
     Test CRC 0C1ABB74
     Copy CRC 0C1ABB74
     Copy OK
Track  2
     Filename D:\New_Rips\Jazz Masters\Charlie Parker\02 - If I Should Lose You.wav
     Pre-gap length  0:00:02.62
     Peak level 82.9 %
     Track quality 100.0 %
     Test CRC CBFDF6E0
     Copy CRC CBFDF6E0
     Copy OK
Track  3
     Filename D:\New_Rips\Jazz Masters\Charlie Parker\03 - Almost Like Being In Love.wav
     Pre-gap length  0:00:02.62
     Peak level 79.9 %
     Track quality 100.0 %
     Test CRC EEA2FE1B
     Copy CRC EEA2FE1B
     Copy OK
Track  4
     Filename D:\New_Rips\Jazz Masters\Charlie Parker\04 - Why Do I Love You .wav
     Pre-gap length  0:00:02.62
     Peak level 98.6 %
     Track quality 100.0 %
     Test CRC 01024955
     Copy CRC 01024955
     Copy OK
Track  5
     Filename D:\New_Rips\Jazz Masters\Charlie Parker\05 - I Remember You.wav
     Pre-gap length  0:00:02.63
     Peak level 83.3 %
     Track quality 100.0 %
     Test CRC FF2F1667
     Copy CRC FF2F1667
     Copy OK
Track  6
     Filename D:\New_Rips\Jazz Masters\Charlie Parker\06 - Easy To Love.wav
     Pre-gap length  0:00:02.62
     Peak level 87.4 %
     Track quality 100.0 %
     Test CRC 7B9C8309
     Copy CRC 7B9C8309
     Copy OK
Track  7
     Filename D:\New_Rips\Jazz Masters\Charlie Parker\07 - Old Folks.wav
     Pre-gap length  0:00:02.62
     Peak level 100.0 %
     Track quality 100.0 %
     Test CRC A567AA48
     Copy CRC A567AA48
     Copy OK
Track  8
     Filename D:\New_Rips\Jazz Masters\Charlie Parker\08 - I Got Rhythm.wav
     Pre-gap length  0:00:02.63
     Peak level 100.0 %
     Track quality 100.0 %
     Test CRC F3DCB692
     Copy CRC F3DCB692
     Copy OK
Track  9
     Filename D:\New_Rips\Jazz Masters\Charlie Parker\09 - Laura.wav
     Pre-gap length  0:00:02.63
     Peak level 92.4 %
     Track quality 100.0 %
     Test CRC A65CA471
     Copy CRC A65CA471
     Copy OK
Track 10
     Filename D:\New_Rips\Jazz Masters\Charlie Parker\10 - Estrellita (Little Star).wav
     Pre-gap length  0:00:02.62
     Peak level 75.6 %
     Track quality 100.0 %
     Test CRC 68EADA80
     Copy CRC 68EADA80
     Copy OK
Track 11
     Filename D:\New_Rips\Jazz Masters\Charlie Parker\11 - What Is This Thing Called Love .wav
     Pre-gap length  0:00:02.63
     Peak level 82.3 %
     Track quality 100.0 %
     Test CRC 5EB32990
     Copy CRC 5EB32990
     Copy OK
Track 12
     Filename D:\New_Rips\Jazz Masters\Charlie Parker\12 - Embraceable You.wav
     Pre-gap length  0:00:02.63
     Peak level 100.0 %
     Track quality 100.0 %
     Test CRC 44481438
     Copy CRC 44481438
     Copy OK
Track 13
     Filename D:\New_Rips\Jazz Masters\Charlie Parker\13 - I Love Paris.wav
     Pre-gap length  0:00:02.63
     Peak level 83.4 %
     Track quality 100.0 %
     Test CRC 503F74EC
     Copy CRC 503F74EC
     Copy OK
Track 14
     Filename D:\New_Rips\Jazz Masters\Charlie Parker\14 - How High The Moon .wav
     Pre-gap length  0:00:02.62
     Peak level 97.1 %
     Track quality 100.0 %
     Test CRC 8BD5F49B
     Copy CRC 8BD5F49B
     Copy OK
No errors occured
End of status report
  :arrow: Мои раздачи на трекере
03:58
759
Нет комментариев. Ваш будет первым!