Поиск

(Bop, Cool Jazz, Vocal) Mose Allison - Gimcracks and Gewgaws - 1997, FLAC (image+.cue) lossless

Треклист:
Mose Allison / Gimcracks and Gewgaws
Жанр: Bop, Cool Jazz, Vocal
Страна-производитель диска: Netherlands
Год издания диска: 1997
Лейбл: Blue Note
Страна: US
Аудио кодек: FLAC (*.flac)
Тип рипа: image+.cue
Битрейт аудио: lossless
Продолжительность: 0:44:43
Источник: Dr.itr
Наличие сканов в содержимом раздачи: да
Треклист:
01. MJA Jr. (Mose Allison) 3:33
02. Gimcracks And Gewgaws (Mose Allison) 5:14
03. Numbers On Paper (Mose Allison) 2:35
04. Cruise Control (Mose Allison) 3:00
05. St. Louis Blues (W.C. Handy) 4:05
06. Mockingbird (Mose Allison) 3:04
07. The More You Get (Mose Allison) 2:54
08. Texanna (Mose Allison) 2:30
09. What Will It Be (Mose Allison) 3:11
10. So Tired (Mose Allison/Shapiro Bernstein/Russ Morgan) 4:04
11. Somebody Gonna Have To Move (Mose Allison) 1:57
12. Fires Of Spring (Mose Allison) 3:31
13. What's With You (Mose Allison) 3:33
14. Old Man Blues (Mose Allison) 1:33
 
Лог создания рипа
Exact Audio Copy V0.99 prebeta 5 from 4. May 2009
EAC extraction logfile from 30. April 2011, 7:29
Mose Allison / Gimcracks and Gewgaws
Used drive  : _NEC    DVD_RW ND-3500AG   Adapter: 0  ID: 0
Read mode               : Secure
Utilize accurate stream : Yes
Defeat audio cache      : Yes
Make use of C2 pointers : No
Read offset correction                      : 48
Overread into Lead-In and Lead-Out          : No
Fill up missing offset samples with silence : Yes
Delete leading and trailing silent blocks   : No
Null samples used in CRC calculations       : Yes
Used interface                              : Native Win32 interface for Win NT & 2000
Used output format              : User Defined Encoder
Selected bitrate                : 768 kBit/s
Quality                         : High
Add ID3 tag                     : No
Command line compressor         : C:\Program Files\Exact Audio Copy\FLAC\FLAC.EXE
Additional command line options : -6 -V -T "ARTIST=%a" -T "TITLE=%t" -T "ALBUM=%g" -T "DATE=%y" -T "TRACKNUMBER=%n" -T "GENRE=%m" -T "COMMENT=%e" %s -o %d
TOC of the extracted CD
     Track |   Start  |  Length  | Start sector | End sector
    ---------------------------------------------------------
        1  |  0:00.00 |  3:33.02 |         0    |    15976
        2  |  3:33.02 |  5:14.30 |     15977    |    39556
        3  |  8:47.32 |  2:35.20 |     39557    |    51201
        4  | 11:22.52 |  2:59.50 |     51202    |    64676
        5  | 14:22.27 |  4:05.25 |     64677    |    83076
        6  | 18:27.52 |  3:03.55 |     83077    |    96856
        7  | 21:31.32 |  2:53.70 |     96857    |   109901
        8  | 24:25.27 |  2:29.38 |    109902    |   121114
        9  | 26:54.65 |  3:11.37 |    121115    |   135476
       10  | 30:06.27 |  4:03.48 |    135477    |   153749
       11  | 34:10.00 |  1:57.17 |    153750    |   162541
       12  | 36:07.17 |  3:30.55 |    162542    |   178346
       13  | 39:37.72 |  3:32.53 |    178347    |   194299
       14  | 43:10.50 |  1:33.02 |    194300    |   201276
Range status and errors
Selected range
     Filename J:\eMusic\Rip\Mose Allison - Gimcracks and Gewgaws.wav
     Peak level 99.9 %
     Range quality 100.0 %
     Test CRC 434D7B8C
     Copy CRC 434D7B8C
     Copy OK
No errors occurred
AccurateRip summary
Track  1  cannot be verified as accurate (confidence 7)  [0D42BAC0], AccurateRip returned [40375527]
Track  2  cannot be verified as accurate (confidence 7)  [94241E90], AccurateRip returned [4EB5413D]
Track  3  cannot be verified as accurate (confidence 6)  [92E101DE], AccurateRip returned [2BB6F206]
Track  4  cannot be verified as accurate (confidence 6)  [F082D39F], AccurateRip returned [249D23E9]
Track  5  cannot be verified as accurate (confidence 6)  [E4EC9806], AccurateRip returned [F3761FB7]
Track  6  cannot be verified as accurate (confidence 6)  [8CDFB0F8], AccurateRip returned [FA88C569]
Track  7  cannot be verified as accurate (confidence 6)  [4E76E2EA], AccurateRip returned [D07E9E4B]
Track  8  cannot be verified as accurate (confidence 6)  [DBAC5489], AccurateRip returned [05B147D6]
Track  9  cannot be verified as accurate (confidence 6)  [80041992], AccurateRip returned [1224EA15]
Track 10  cannot be verified as accurate (confidence 6)  [6EFBFA7D], AccurateRip returned [BB6F815A]
Track 11  cannot be verified as accurate (confidence 6)  [D1017350], AccurateRip returned [52170BB0]
Track 12  cannot be verified as accurate (confidence 7)  [8996F7D4], AccurateRip returned [4AB8446E]
Track 13  cannot be verified as accurate (confidence 7)  [0EFBFE75], AccurateRip returned [C33BB1EC]
Track 14  cannot be verified as accurate (confidence 7)  [9F6403E5], AccurateRip returned [B7315271]
No tracks could be verified as accurate
You may have a different pressing from the one(s) in the database
End of status report
 
 
Содержание индексной карты (.CUE)
REM GENRE Jazz
REM DATE 1998
REM DISCID CB0A7B0E
REM COMMENT "ExactAudioCopy v0.99pb5"
PERFORMER "Mose Allison"
TITLE "Gimcracks and Gewgaws"
FILE "Mose Allison - Gimcracks and Gewgaws.flac" WAVE
  TRACK 01 AUDIO
    TITLE "MJA Jr."
    PERFORMER "Mose Allison"
    INDEX 01 00:00:00
  TRACK 02 AUDIO
    TITLE "Gimcracks and Gewgaws"
    PERFORMER "Mose Allison"
    INDEX 00 03:30:52
    INDEX 01 03:33:02
  TRACK 03 AUDIO
    TITLE "Numbers on Paper"
    PERFORMER "Mose Allison"
    INDEX 00 08:45:30
    INDEX 01 08:47:32
  TRACK 04 AUDIO
    TITLE "Cruise Control"
    PERFORMER "Mose Allison"
    INDEX 00 11:20:05
    INDEX 01 11:22:52
  TRACK 05 AUDIO
    TITLE "St. Louis Blues"
    PERFORMER "Mose Allison"
    INDEX 00 14:19:45
    INDEX 01 14:22:27
  TRACK 06 AUDIO
    TITLE "Mockingbird"
    PERFORMER "Mose Allison"
    INDEX 00 18:25:07
    INDEX 01 18:27:52
  TRACK 07 AUDIO
    TITLE "The More You Get"
    PERFORMER "Mose Allison"
    INDEX 00 21:28:57
    INDEX 01 21:31:32
  TRACK 08 AUDIO
    TITLE "Texanna"
    PERFORMER "Mose Allison"
    INDEX 00 24:24:02
    INDEX 01 24:25:27
  TRACK 09 AUDIO
    TITLE "What Will It Be"
    PERFORMER "Mose Allison"
    INDEX 00 26:52:37
    INDEX 01 26:54:65
  TRACK 10 AUDIO
    TITLE "So Tired"
    PERFORMER "Mose Allison"
    INDEX 00 30:04:20
    INDEX 01 30:06:27
  TRACK 11 AUDIO
    TITLE "Somebody Gonna Have to Move"
    PERFORMER "Mose Allison"
    INDEX 00 34:07:60
    INDEX 01 34:10:00
  TRACK 12 AUDIO
    TITLE "Fires of Spring"
    PERFORMER "Mose Allison"
    INDEX 00 36:04:25
    INDEX 01 36:07:17
  TRACK 13 AUDIO
    TITLE "What's With You"
    PERFORMER "Mose Allison"
    INDEX 00 39:35:62
    INDEX 01 39:37:72
  TRACK 14 AUDIO
    TITLE "Old Man Blues"
    PERFORMER "Mose Allison"
    INDEX 00 43:09:02
    INDEX 01 43:10:50
 
 
Скриншот спектра частот
 
 
 
Об исполнителе (группе)
The older Mose Allison gets, the sharper his mind becomes, the more idiosyncratic his music sounds, and the more pleasure the aficionado gets for spending the better part of an hour with his latest stuff. By this time, the 70-year old philosopher from Tippo, Miss. had sharpened his wit and insight on life to an even keener edge, musing wryly on materialism, technology, aging, death, even his own name ("MJA, Jr."). The tunes seem to have disappeared almost entirely but it doesn't matter; the lyrics are so damned clever and as hilarious as ever, even when they are obviously sequels to previous masterworks like "Your Mind Is On Vacation" ("What's With You") or "Young Man's Blues" ("Old Man Blues"). Mose's piano style by now has been pared down to its unique essentials, a ceaseless, swinging linear flow drawing from the three Bs -- Bach, Bartok and bop -- and his voice has barely aged since his Prestige days. Mark Shim muses ably on tenor sax now and then, and guitarist Russell Malone ranges all over the stylistic lot between R&B and jazz. At this rate, waiting four years or so between albums in the '90s, Allison has kept his creative batteries fresh every time out.
© Richard S. Ginell, AMG
 
 
Состав
Mose Allison (Piano and Vocals)
Paul Motian (Drums)
Ratzo Harris (Double Bass)
Mark Shim (Tenor Saxophone)
Russell Malone (Guitar)
05:54
525
Нет комментариев. Ваш будет первым!