Поиск

(Bop) Dexter Gordon - Quartet 1955-1967 - 1998, FLAC (tracks+.cue), lossless

(Bop) Dexter Gordon - Quartet 1955-1967 - 1998, FLAC (tracks+.cue), lossless
♦ Dexter Gordon - Quartet 1955-1967 ♦
Жанр: Bop
Страна-производитель диска: EEC
Год издания: 1998
Издатель (лейбл): Giants Of Jazz
Номер по каталогу: CD 53065
Аудиокодек: FLAC (*.flac)
Тип рипа: tracks+.cue
Битрейт аудио: lossless
Продолжительность: 01:11:14
Источник (релизер): Рип с диска.
Наличие сканов в содержимом раздачи: да
Треклист:
01. Confirmation [07:49]
02. Autumn in New York [06:30]
03. You Can Depend on Me [09:02]
04. Number Four [04:51]
05. Daddy Plays the Horn [09:11]
06. Darn That Dream [04:17]
07. Doxy [07:12]
08. For All We Know [08:41]
09. Cheese Cake [13:37]
 
Лог создания рипа
Exact Audio Copy V1.0 beta 3 from 29. August 2011
EAC extraction logfile from 21. March 2013, 15:03
Dexter Gordon  / Quartet 1955-1967
Used drive  : Optiarc DVD RW AD-5200A   Adapter: 0  ID: 0
Read mode               : Secure
Utilize accurate stream : Yes
Defeat audio cache      : Yes
Make use of C2 pointers : No
Read offset correction                      : 48
Overread into Lead-In and Lead-Out          : No
Fill up missing offset samples with silence : Yes
Delete leading and trailing silent blocks   : No
Null samples used in CRC calculations       : Yes
Used interface                              : Native Win32 interface for Win NT & 2000
Gap handling                                : Appended to previous track
Used output format              : User Defined Encoder
Selected bitrate                : 128 kBit/s
Quality                         : High
Add ID3 tag                     : No
Command line compressor         : C:\Program Files\Exact Audio Copy\Flac\flac.exe
Additional command line options : -V -8 -T "Genre=%genre%" -T "Artist=%artist%" -T "Title=%title%" -T "Album=%albumtitle%" -T "Date=%year%" -T "Tracknumber=%tracknr%" -T "Comment=%comment%" %source%
TOC of the extracted CD
     Track |   Start  |  Length  | Start sector | End sector
    ---------------------------------------------------------
        1  |  0:00.32 |  7:49.20 |        32    |    35226
        2  |  7:49.52 |  6:30.33 |     35227    |    64509
        3  | 14:20.10 |  9:02.35 |     64510    |   105194
        4  | 23:22.45 |  4:51.62 |    105195    |   127081
        5  | 28:14.32 |  9:11.18 |    127082    |   168424
        6  | 37:25.50 |  4:17.55 |    168425    |   187754
        7  | 41:43.30 |  7:12.72 |    187755    |   220226
        8  | 48:56.27 |  8:41.30 |    220227    |   259331
        9  | 57:37.57 | 13:37.45 |    259332    |   320651
Track  1
     Filename F:\1990.Dexter Gordon - Quartet 1955-1967 (Giants Of Jazz)\01. Confirmation.wav
     Pre-gap length  0:00:02.32
     Peak level 86.0 %
     Extraction speed 2.7 X
     Track quality 100.0 %
     Test CRC 88A33AC5
     Copy CRC 88A33AC5
     Accurately ripped (confidence 5)  [855A6EEA]  (AR v2)
     Copy OK
Track  2
     Filename F:\1990.Dexter Gordon - Quartet 1955-1967 (Giants Of Jazz)\02. Autumn in New York.wav
     Pre-gap length  0:00:00.02
     Peak level 66.8 %
     Extraction speed 2.9 X
     Track quality 99.9 %
     Test CRC 7B29B997
     Copy CRC 7B29B997
     Accurately ripped (confidence 5)  [F59FC1C9]  (AR v2)
     Copy OK
Track  3
     Filename F:\1990.Dexter Gordon - Quartet 1955-1967 (Giants Of Jazz)\03. You Can Depend on Me.wav
     Pre-gap length  0:00:00.03
     Peak level 86.6 %
     Extraction speed 3.3 X
     Track quality 99.9 %
     Test CRC 85362CDA
     Copy CRC 85362CDA
     Accurately ripped (confidence 4)  [D6A88B61]  (AR v2)
     Copy OK
Track  4
     Filename F:\1990.Dexter Gordon - Quartet 1955-1967 (Giants Of Jazz)\04. Number Four.wav
     Pre-gap length  0:00:00.03
     Peak level 81.3 %
     Extraction speed 3.2 X
     Track quality 99.9 %
     Test CRC C0D55C7B
     Copy CRC C0D55C7B
     Accurately ripped (confidence 4)  [A58FBE5C]  (AR v2)
     Copy OK
Track  5
     Filename F:\1990.Dexter Gordon - Quartet 1955-1967 (Giants Of Jazz)\05. Daddy Plays the Horn.wav
     Pre-gap length  0:00:00.02
     Peak level 85.6 %
     Extraction speed 3.7 X
     Track quality 100.0 %
     Test CRC 98F645A7
     Copy CRC 98F645A7
     Accurately ripped (confidence 4)  [3364B7B5]  (AR v2)
     Copy OK
Track  6
     Filename F:\1990.Dexter Gordon - Quartet 1955-1967 (Giants Of Jazz)\06. Darn That Dream.wav
     Pre-gap length  0:00:00.03
     Peak level 92.2 %
     Extraction speed 3.5 X
     Track quality 100.0 %
     Test CRC FCB0CF00
     Copy CRC FCB0CF00
     Accurately ripped (confidence 4)  [C6007ADE]  (AR v2)
     Copy OK
Track  7
     Filename F:\1990.Dexter Gordon - Quartet 1955-1967 (Giants Of Jazz)\07. Doxy.wav
     Pre-gap length  0:00:00.03
     Peak level 100.0 %
     Extraction speed 3.7 X
     Track quality 100.0 %
     Test CRC 32471D09
     Copy CRC 32471D09
     Accurately ripped (confidence 4)  [B3149748]  (AR v2)
     Copy OK
Track  8
     Filename F:\1990.Dexter Gordon - Quartet 1955-1967 (Giants Of Jazz)\08. For All We Know.wav
     Pre-gap length  0:00:00.02
     Peak level 88.3 %
     Extraction speed 3.7 X
     Track quality 100.0 %
     Test CRC CDF36A20
     Copy CRC CDF36A20
     Accurately ripped (confidence 4)  [22778885]  (AR v2)
     Copy OK
Track  9
     Filename F:\1990.Dexter Gordon - Quartet 1955-1967 (Giants Of Jazz)\09. Cheese Cake.wav
     Pre-gap length  0:00:00.02
     Peak level 98.1 %
     Extraction speed 3.8 X
     Track quality 100.0 %
     Test CRC 23B81D4F
     Copy CRC 23B81D4F
     Accurately ripped (confidence 4)  [E5AE5A32]  (AR v2)
     Copy OK
All tracks accurately ripped
No errors occurred
End of status report
==== Log checksum 4DEC43AB26C6174AF575ED54B46F640E847BE7881F7EB83210D320DF2E4C084F ====
 
 
Содержание индексной карты (.CUE)
REM GENRE Jazz
REM DATE 1990
REM DISCID 8310B309
REM COMMENT "ExactAudioCopy v1.0b3"
PERFORMER "Dexter Gordon "
TITLE "Quartet 1955-1967"
FILE "01. Confirmation.wav" WAVE
  TRACK 01 AUDIO
    TITLE "Confirmation"
    PERFORMER "Dexter Gordon "
    PREGAP 00:00:32
    INDEX 01 00:00:00
  TRACK 02 AUDIO
    TITLE "Autumn in New York"
    PERFORMER "Dexter Gordon "
    INDEX 00 07:49:18
FILE "02. Autumn in New York.wav" WAVE
    INDEX 01 00:00:00
  TRACK 03 AUDIO
    TITLE "You Can Depend on Me"
    PERFORMER "Dexter Gordon "
    INDEX 00 06:30:30
FILE "03. You Can Depend on Me.wav" WAVE
    INDEX 01 00:00:00
  TRACK 04 AUDIO
    TITLE "Number Four"
    PERFORMER "Dexter Gordon "
    INDEX 00 09:02:32
FILE "04. Number Four.wav" WAVE
    INDEX 01 00:00:00
  TRACK 05 AUDIO
    TITLE "Daddy Plays the Horn"
    PERFORMER "Dexter Gordon "
    INDEX 00 04:51:60
FILE "05. Daddy Plays the Horn.wav" WAVE
    INDEX 01 00:00:00
  TRACK 06 AUDIO
    TITLE "Darn That Dream"
    PERFORMER "Dexter Gordon "
    INDEX 00 09:11:15
FILE "06. Darn That Dream.wav" WAVE
    INDEX 01 00:00:00
  TRACK 07 AUDIO
    TITLE "Doxy"
    PERFORMER "Dexter Gordon "
    INDEX 00 04:17:52
FILE "07. Doxy.wav" WAVE
    INDEX 01 00:00:00
  TRACK 08 AUDIO
    TITLE "For All We Know"
    PERFORMER "Dexter Gordon "
    INDEX 00 07:12:70
FILE "08. For All We Know.wav" WAVE
    INDEX 01 00:00:00
  TRACK 09 AUDIO
    TITLE "Cheese Cake"
    PERFORMER "Dexter Gordon "
    INDEX 00 08:41:28
FILE "09. Cheese Cake.wav" WAVE
    INDEX 01 00:00:00
 
 
Состав
Personnel:
Dexter Gordon - ts
Kenny Drew - p
Leroy Vinnegar - b
Lawerence Marable - dr
Tete Montoliu - p
Niels Henning Orsted Pedersen - b
Alex Riel - dr
Albert "Tootie" Heath - dr
Скачивание доступно после регистрации!!
Приватный:
Нет (DHT включён)
Размер:
394.85 Мб (414,032,402 байт) » файлов: 17
Участники:
0 раздают, 0 качают (0 участников всего)
Внешние участники:
2 раздают, 1 качают (3 участников всего) [ Обновить ]
18:04
467
Нет комментариев. Ваш будет первым!