Поиск

(Bop) Erroll Garner — Verve Jazz Masters 7 — 1994, FLAC (tracks+.cue), lossless

(Bop) Erroll Garner — Verve Jazz Masters 7 — 1994, FLAC (tracks+.cue), lossless
Треклист:
Erroll Garner — Verve Jazz Masters 7
Жанр: Bop
Год выпуска диска: 1994
Label: Verve
Аудио кодек: FLAC
Тип рипа: tracks+.cue
Битрейт аудио: lossless
Продолжительность: 71:29
Трeклист:
01. I've Got To Be A Rug Cutter (2:23)
02. Misty (2:53)
03. Smooth One (4:28)
04. Love In Bloom (5:33)
05. (All Of A Sudden) My Heart Sings (3:24)
06. Don't Be That Way (6:26)
07. 7/11 Jump (7:20)
08. St. James Infirmary (6:13)
09. Don't Worry 'Bout Me (5:06)
10. Is You Is Or Is You Ain't My Baby (4:01)
11. Part Time Blues (4:36)
12. Yesterdays (7:25)
13. Oh, Lady Be Good (2:37)
14. Fandango (5:04)
15. I've Got The World On A String (4:00)
Источник: what.cd
 
Отчет ЕАС
Exact Audio Copy V0.99 prebeta 4 from 23. January 2008
EAC extraction logfile from 15. May 2009, 19:17
Erroll Garner / Jazz Masters 7
Used drive  : HL-DT-STDVDRAM GSA-4167B   Adapter: 0  ID: 0
Read mode               : Secure
Utilize accurate stream : Yes
Defeat audio cache      : Yes
Make use of C2 pointers : No
Read offset correction                      : 667
Overread into Lead-In and Lead-Out          : No
Fill up missing offset samples with silence : Yes
Delete leading and trailing silent blocks   : No
Null samples used in CRC calculations       : Yes
Used interface                              : Native Win32 interface for Win NT & 2000
Gap handling                                : Appended to previous track
Used output format              : User Defined Encoder
Selected bitrate                : 128 kBit/s
Quality                         : High
Add ID3 tag                     : No
Command line compressor         : D:\Program Files\Exact Audio Copy\Flac\flac.exe
Additional command line options : -V -8 -T "ARTIST=%a" -T "TITLE=%t" -T "ALBUM=%g" -T "DATE=%y" -T "TRACKNUMBER=%n" -T "GENRE=%m" -T "COMMENT=EAC FLAC -8" %s
TOC of the extracted CD
     Track |   Start  |  Length  | Start sector | End sector
    ---------------------------------------------------------
        1  |  0:00.33 |  2:22.62 |        33    |    10744
        2  |  2:23.20 |  2:53.35 |     10745    |    23754
        3  |  5:16.55 |  4:28.25 |     23755    |    43879
        4  |  9:45.05 |  5:33.35 |     43880    |    68889
        5  | 15:18.40 |  3:23.65 |     68890    |    84179
        6  | 18:42.30 |  6:26.08 |     84180    |   113137
        7  | 25:08.38 |  7:20.20 |    113138    |   146157
        8  | 32:28.58 |  6:12.47 |    146158    |   174104
        9  | 38:41.30 |  5:05.73 |    174105    |   197052
       10  | 43:47.28 |  4:01.37 |    197053    |   215164
       11  | 47:48.65 |  4:35.43 |    215165    |   235832
       12  | 52:24.33 |  7:24.70 |    235833    |   269202
       13  | 59:49.28 |  2:36.67 |    269203    |   280969
       14  | 62:26.20 |  5:03.43 |    280970    |   303737
       15  | 67:29.63 |  3:59.52 |    303738    |   321714
Track  1
     Filename H:\0 Rip\01 - I've Got To Be A Rug Cutter.wav
     Pre-gap length  0:00:02.44
     Peak level 98.9 %
     Track quality 100.0 %
     Test CRC 6CF73B69
     Copy CRC 6CF73B69
     Copy OK
Track  2
     Filename H:\0 Rip\02 - Misty.wav
     Pre-gap length  0:00:03.16
     Peak level 97.6 %
     Track quality 100.0 %
     Test CRC 05BA64FE
     Copy CRC 05BA64FE
     Copy OK
Track  3
     Filename H:\0 Rip\03 - Smooth One.wav
     Pre-gap length  0:00:03.16
     Peak level 96.0 %
     Track quality 100.0 %
     Test CRC DDCD2163
     Copy CRC DDCD2163
     Copy OK
Track  4
     Filename H:\0 Rip\04 - Love In Bloom.wav
     Pre-gap length  0:00:03.16
     Peak level 99.9 %
     Track quality 100.0 %
     Test CRC CC1B9863
     Copy CRC CC1B9863
     Copy OK
Track  5
     Filename H:\0 Rip\05 - (All Of A Sudden) My Heart Sings.wav
     Pre-gap length  0:00:03.16
     Peak level 91.2 %
     Track quality 99.9 %
     Test CRC 6166917A
     Copy CRC 6166917A
     Copy OK
Track  6
     Filename H:\0 Rip\06 - Don't Be That Way.wav
     Pre-gap length  0:00:03.16
     Peak level 96.2 %
     Track quality 100.0 %
     Test CRC 8D3F9083
     Copy CRC 8D3F9083
     Copy OK
Track  7
     Filename H:\0 Rip\07 - 7,11 Jump.wav
     Pre-gap length  0:00:03.17
     Peak level 100.0 %
     Track quality 100.0 %
     Test CRC A9295CAB
     Copy CRC A9295CAB
     Copy OK
Track  8
     Filename H:\0 Rip\08 - St. James Infirmary.wav
     Pre-gap length  0:00:03.17
     Peak level 100.0 %
     Track quality 100.0 %
     Test CRC FF44429D
     Copy CRC FF44429D
     Copy OK
Track  9
     Filename H:\0 Rip\09 - Don't Worry 'Bout Me.wav
     Pre-gap length  0:00:03.16
     Peak level 72.1 %
     Track quality 100.0 %
     Test CRC C7DB3FF6
     Copy CRC C7DB3FF6
     Copy OK
Track 10
     Filename H:\0 Rip\10 - Is You Is Or Is You Ain't My Baby.wav
     Pre-gap length  0:00:03.17
     Peak level 98.3 %
     Track quality 100.0 %
     Test CRC B41011BB
     Copy CRC B41011BB
     Copy OK
Track 11
     Filename H:\0 Rip\11 - Part-Time Blues.wav
     Pre-gap length  0:00:03.16
     Peak level 91.1 %
     Track quality 100.0 %
     Test CRC EFA2334C
     Copy CRC EFA2334C
     Copy OK
Track 12
     Filename H:\0 Rip\12 - Yesterdays.wav
     Pre-gap length  0:00:03.17
     Peak level 96.5 %
     Track quality 100.0 %
     Test CRC A4065E03
     Copy CRC A4065E03
     Copy OK
Track 13
     Filename H:\0 Rip\13 - Oh, Lady Be Good.wav
     Pre-gap length  0:00:03.17
     Peak level 97.2 %
     Track quality 100.0 %
     Test CRC F760743E
     Copy CRC F760743E
     Copy OK
Track 14
     Filename H:\0 Rip\14 - Fandango.wav
     Pre-gap length  0:00:03.16
     Peak level 97.3 %
     Track quality 100.0 %
     Test CRC 574BA317
     Copy CRC 574BA317
     Copy OK
Track 15
     Filename H:\0 Rip\15 - I've Got The World On A String.wav
     Pre-gap length  0:00:03.17
     Peak level 89.5 %
     Track quality 100.0 %
     Test CRC 30AD2232
     Copy CRC 30AD2232
     Copy OK
No errors occurred
End of status report
  :arrow: Мои раздачи на трекере
03:59
834
Нет комментариев. Ваш будет первым!