Поиск

(Bop, Hard Bop, Mainstream Jazz) Wynton Kelly - Wynton Kelly! & Kelly Great - 2000, APE (image+.cue), lossless

(Bop, Hard Bop, Mainstream Jazz) Wynton Kelly - Wynton Kelly! & Kelly Great - 2000, APE (image+.cue), lossless
Wynton Kelly - Wynton Kelly! & Kelly Great
Жанр: Bop, Hard Bop, Mainstream Jazz
Страна-производитель диска: Россия
Год издания диска: 2000
Аудиокодек: APE (*.ape)
Тип рипа: image+.cue
Битрейт аудио: lossless
Продолжительность: 01:09:44
Источник (релизер): Рип с диска.
Наличие сканов в содержимом раздачи: да
Треклист:
01. Come Rain Or Come Shine
02. Make The Man Love Me
03. Autumn Leaves
04. Surrey With The Fringe On Top
05. Joe's Avenue
06. Sassy
07. Love I've Found You
08. Gone With The Wind
09. Wrinkles
10.Mama G
11.June Night
12.What Know
13.Sydney

Personnel:
Wynton Kelly - p
Tracks 1 - 8:
Paul Chambers - b
Sam Jones - b
Jimmy Cobb - dr1961 г.Tracks 9 - 13:
Wayne Shorter - ts
Lee Morgan - tp
Paul Chambers - b
Philly Joe Jones - dr1960 г.
 
Лог создания рипа
Exact Audio Copy V1.0 beta 3 from 29. August 2011
Отчёт EAC об извлечении, выполненном 31. октября 2011, 18:08
Wynton Kelly / Wynton Kelly! & Kelly Great
Дисковод: Optiarc DVD RW AD-5200A   Adapter: 0  ID: 1
Режим чтения                 : Достоверность
Использование точного потока : Да
Отключение кэша аудио        : Да
Использование указателей C2  : Нет
Коррекция смещения при чтении                     : 48
Способность читать области Lead-in и Lead-out     : Нет
Заполнение пропущенных сэмплов тишиной            : Да
Удаление блоков с тишиной в начале и конце        : Нет
При вычислениях CRC использовались нулевые сэмплы : Да
Интерфейс                                         : Установленный внешний ASPI-интерфейс
Выходной формат          : Пользовательский кодировщик
Выбранный битрейт        : 128 kBit/s
Качество                 : Высокий
Добавление ID3-тега      : Нет
Утилита сжатия           : C:\Program Files\Monkey's Audio\MAC.exe
Дополнительные параметры : %source% %dest% -c3000
TOC извлечённого CD
     Трек |   Старт  | Длительность | Начальный сектор | Конечный сектор
    ---------------------------------------------------------------------
       1  |  0:00.00 |    5:53.22   |           0      |      26496
       2  |  5:53.22 |    3:39.23   |       26497      |      42944
       3  |  9:32.45 |    6:11.14   |       42945      |      70783
       4  | 15:43.59 |    3:49.01   |       70784      |      87959
       5  | 19:32.60 |    2:51.22   |       87960      |     100806
       6  | 22:24.07 |    5:11.03   |      100807      |     124134
       7  | 27:35.10 |    2:36.48   |      124135      |     135882
       8  | 30:11.58 |    4:15.39   |      135883      |     155046
       9  | 34:27.22 |    7:54.15   |      155047      |     190611
      10  | 42:21.37 |    7:28.28   |      190612      |     224239
      11  | 49:49.65 |    8:21.43   |      224240      |     261857
      12  | 58:11.33 |    7:44.46   |      261858      |     296703
      13  | 65:56.04 |    3:48.20   |      296704      |     313823
Характеристики диапазона извлечения и сообщения об ошибках
Выбранный диапазон
     Имя файла F:\2000.Wynton Kelly - Wynton Kelly! & Kelly Great (1960-1961)\Wynton Kelly - Wynton Kelly! & Kelly Great.wav
     Пиковый уровень 100.0 %
     Скорость извлечения 3.7 X
     Качество диапазона 100.0 %
     CRC теста CBE3D76F
     CRC копии CBE3D76F
     Копирование... OK
Ошибок не произошло
AccurateRip: сводка
Трек  1  отсутствует в базе данных
Трек  2  отсутствует в базе данных
Трек  3  отсутствует в базе данных
Трек  4  отсутствует в базе данных
Трек  5  отсутствует в базе данных
Трек  6  отсутствует в базе данных
Трек  7  отсутствует в базе данных
Трек  8  отсутствует в базе данных
Трек  9  отсутствует в базе данных
Трек 10  отсутствует в базе данных
Трек 11  отсутствует в базе данных
Трек 12  отсутствует в базе данных
Трек 13  отсутствует в базе данных
Ни одного трека нет в базе AccurateRip
Конец отчёта
==== Контрольная сумма отчёта F42E9407D208D9028989C044FFCF03AD047F831DB9F6361822E9D06616E27422 ====
 
 
Содержание индексной карты (.CUE)
REM GENRE Jazz
REM DATE 2000
REM DISCID CC10580D
REM COMMENT "ExactAudioCopy v1.0b3"
PERFORMER "Wynton Kelly"
TITLE "Wynton Kelly! & Kelly Great "
FILE "Wynton Kelly - Wynton Kelly! & Kelly Great.ape" WAVE
  TRACK 01 AUDIO
    TITLE "Come Rain Or Come Shine"
    PERFORMER "Wynton Kelly"
    INDEX 01 00:00:00
  TRACK 02 AUDIO
    TITLE "Make The Man Love Me"
    PERFORMER "Wynton Kelly"
    INDEX 00 05:51:22
    INDEX 01 05:53:22
  TRACK 03 AUDIO
    TITLE "Autumn Leaves"
    PERFORMER "Wynton Kelly"
    INDEX 00 09:30:45
    INDEX 01 09:32:45
  TRACK 04 AUDIO
    TITLE "Surrey With The Fringe On Top"
    PERFORMER "Wynton Kelly"
    INDEX 00 15:41:59
    INDEX 01 15:43:59
  TRACK 05 AUDIO
    TITLE "Joe's Avenue"
    PERFORMER "Wynton Kelly"
    INDEX 00 19:30:60
    INDEX 01 19:32:60
  TRACK 06 AUDIO
    TITLE "Sassy"
    PERFORMER "Wynton Kelly"
    INDEX 00 22:22:07
    INDEX 01 22:24:07
  TRACK 07 AUDIO
    TITLE "Love I've Found You"
    PERFORMER "Wynton Kelly"
    INDEX 00 27:33:10
    INDEX 01 27:35:10
  TRACK 08 AUDIO
    TITLE "Gone With The Wind"
    PERFORMER "Wynton Kelly"
    INDEX 00 30:09:58
    INDEX 01 30:11:58
  TRACK 09 AUDIO
    TITLE "Wrinkles"
    PERFORMER "Wynton Kelly"
    INDEX 00 34:25:22
    INDEX 01 34:27:22
  TRACK 10 AUDIO
    TITLE "Mama G"
    PERFORMER "Wynton Kelly"
    INDEX 00 42:19:37
    INDEX 01 42:21:37
  TRACK 11 AUDIO
    TITLE "June Night"
    PERFORMER "Wynton Kelly"
    INDEX 00 49:47:65
    INDEX 01 49:49:65
  TRACK 12 AUDIO
    TITLE "What Know"
    PERFORMER "Wynton Kelly"
    INDEX 00 58:09:33
    INDEX 01 58:11:33
  TRACK 13 AUDIO
    TITLE "Sydney"
    PERFORMER "Wynton Kelly"
    INDEX 00 65:54:04
    INDEX 01 65:56:04
Скачивание доступно после регистрации!!
Приватный:
Нет (DHT включён)
Размер:
342.17 Мб (358,786,275 байт) » файлов: 9
Участники:
0 раздают, 0 качают (0 участников всего)
Внешние участники:
2 раздают, 1 качают (3 участников всего) [ Обновить ]
15:59
593
Нет комментариев. Ваш будет первым!