Поиск

(Bop) Lester Young / Flip Phillips / Roy Eldridge / Hank Jones / Ray Brown / Max Roach - Jazz at the Philarmonic: Frankfurt, 1952 - 1997, FLAC (image+.cue), lossless

(Bop) Lester Young / Flip Phillips / Roy Eldridge / Hank Jones / Ray Brown / Max Roach - Jazz at the Philarmonic: Frankfurt, 1952 - 1997, FLAC (image+.cue), lossless
Треклист:
Lester Young / Flip Phillips / Roy Eldridge / Hank Jones / Ray Brown / Max Roach:
Jazz at the Philarmonic: Frankfurt, 1952
Жанр: Bop
Год выпуска диска: 1997
Производитель диска: Pablo/Fantasy (PABLO 0025218530521)
Аудио кодек: FLAC
Тип рипа: image+.cue
Битрейт аудио: lossless
Продолжительность: 0:46:35
Трэклист:
01. Introduction (1:49)
02. How High The Moon (11:18)
03. Undecided (11:50)
04. Ballad Medley (Deep Purple, Rockin' Chair, This Is Always, I Cover The Waterf... (8:17)
05. Dre's Blues (13:20)
Lester Young - tenor saxophone
Flip Phillips - tenor saxophone
Roy Eldridge - trumpet
Hank Jones - piano
Ray Brown - bass
Max Roach - drums
Recorded November 20, 1952 in Frankfurt, Germany
За рип спасибо garet jax
.
 
EAC Log
Exact Audio Copy V0.99 prebeta 4 from 23. January 2008
EAC extraction logfile from 11. February 2009, 15:21
V.A. / Frankfurt 1952
Used drive  : LITE-ON CD-RW SOHR-5238S   Adapter: 1  ID: 1
Read mode               : Secure
Utilize accurate stream : Yes
Defeat audio cache      : Yes
Make use of C2 pointers : No
Read offset correction                      : 6
Overread into Lead-In and Lead-Out          : No
Fill up missing offset samples with silence : Yes
Delete leading and trailing silent blocks   : No
Null samples used in CRC calculations       : Yes
Used interface                              : Installed external ASPI interface
Used output format : Internal WAV Routines
Sample format      : 44.100 Hz; 16 Bit; Stereo
TOC of the extracted CD
     Track |   Start  |  Length  | Start sector | End sector
    ---------------------------------------------------------
        1  |  0:00.00 |  1:48.67 |         0    |     8166
        2  |  1:48.67 | 11:18.35 |      8167    |    59051
        3  | 13:07.27 | 11:49.53 |     59052    |   112279
        4  | 24:57.05 |  8:17.30 |    112280    |   149584
        5  | 33:14.35 | 13:20.05 |    149585    |   209589
Range status and errors
Selected range
     Filename D:\EAC\Frankfurt\Frankfurt 1952.wav
     Peak level 99.5 %
     Range quality 100.0 %
     Test CRC 498A75E6
     Copy CRC 498A75E6
     Copy OK
No errors occurred
End of status report
Download available for power users only.
10:44
391
Нет комментариев. Ваш будет первым!