Поиск

(Bop) Oscar Peterson — Verve Jazz Masters 16 — 1993, APE (image+.cue), lossless

Треклист:
Oscar Peterson - Jazz Masters 16
Жанр: jazz
Год выпуска диска: 1993
Аудио кодек: APE
Тип рипа: image+.cue
Битрейт аудио: lossless
Продолжительность: 1:03:45
Трэклист:
01. Night Train 04:51
02. Woody 'N' You 03:51
03. Willow Weep For Me 03:22
04. Younger Than Springtime 05:30
05. West Coast Blues 04:05
06. Love For Sale 03:30
07. Norreen's Nocturne 05:25
08. O.P. 02:54
09. Blues Etude 05:22
10. Gal in Calico 05:56
11. D & E 05:13
12. Bossa Beguine 03:58
13. Evrev 04:26
14. Honey Dripper 02:25
15. Someday My Prince Will Come 02:52
 
Отчёт EAC
Exact Audio Copy V0.99 prebeta 4 from 23. January 2008
Отчёт EAC об извлечении, выполненном 25. августа 2008, 1:19
Oscar Peterson / Jazz Masters 16
Дисковод: Optiarc DVD RW AD-7530A Adapter: 1 ID: 1
Режим чтения : Достоверность
Использование точного потока : Да
Отключение кэша аудио : Да
Использование указателей C2 : Нет
Коррекция смещения при чтении : 6
Способность читать области Lead-in и Lead-out : Нет
Заполнение пропущенных сэмплов тишиной : Да
Удаление блоков с тишиной в начале и конце : Нет
При вычислениях CRC использовались нулевые сэмплы : Да
Интерфейс : Встроенный Win32-интерфейс для Win NT/2000
Выходной формат : Внутренние WAV-операции
Формат сэмплов : 44.100 Гц; 16 бит; стерео
TOC извлечённого CD
Трек | Старт | Длительность | Начальный сектор | Конечный сектор
---------------------------------------------------------------------
1 | 0:00.32 | 4:51.58 | 32 | 21914
2 | 4:52.15 | 3:51.00 | 21915 | 39239
3 | 8:43.15 | 3:22.05 | 39240 | 54394
4 | 12:05.20 | 5:30.00 | 54395 | 79144
5 | 17:35.20 | 4:05.47 | 79145 | 97566
6 | 21:40.67 | 3:30.05 | 97567 | 113321
7 | 25:10.72 | 5:25.53 | 113322 | 137749
8 | 30:36.50 | 2:54.65 | 137750 | 150864
9 | 33:31.40 | 5:22.12 | 150865 | 175026
10 | 38:53.52 | 5:56.53 | 175027 | 201779
11 | 44:50.30 | 5:13.10 | 201780 | 225264
12 | 50:03.40 | 3:58.20 | 225265 | 243134
13 | 54:01.60 | 4:26.50 | 243135 | 263134
14 | 58:28.35 | 2:25.40 | 263135 | 274049
15 | 60:54.00 | 2:52.20 | 274050 | 286969
Характеристики диапазона извлечения и сообщения об ошибках
Выбранный диапазон
Имя файла G:\Downloads\Oscar Peterson - Jazz Masters 16\Oscar Peterson - Jazz Masters 16.wav
Пиковый уровень 100.0 %
Качество диапазона 99.9 %
CRC копии B4958F0E
Копирование... OK
Ошибок не произошло
Конец отчёта
06:32
664
Нет комментариев. Ваш будет первым!