Поиск

(Bop) Paul Gonsalves With Roy Eldridge — Mexican Bandit Meets Pittsburgh Pirate (1973) — 1992, FLAC (image+.cue) lossless

Треклист:
Paul Gonsalves With Roy Eldridge — Mexican Bandit Meets Pittsburgh Pirate (1973)
Жанр: Bop
Год издания диска: 1992
Издатель (лейбл): Original Jazz Classic
Номер по каталогу: OJCCD-751-2
Аудио кодек: FLAC (*.flac)
Тип рипа: image+.cue
Битрейт аудио: lossless
Продолжительность: 46:37
Релизер: De_Metrio
Наличие сканов в содержимом раздачи: да
Треклист:
01. 5400 North (6:57)
02. I Cover the Waterfront (8:27)
03. C Jam Blues (5:52)
04. Body and Soul (7:34)
05. It's the Talk of the Town (7:06)
06. Somebody Loves Me (4:56)
Bonus track
07. Satin Doll (5:46)
Personnel:
Roy Eldridge - tp, voc
Paul Gonsalves - ts
Sam Jones - b
Eddie Locke - dr
Cliff Smalls - p
Rec.: New York, August 24, 1973.
 
Лог создания рипа
EAC extraction logfile from 6. April 2008, 15:45 for CD
Paul Gonsalves with Roy Eldridge / Mexican Bandit Meets Pittsburgh Pirate
Used drive  : TEAC    DV-W518GM   Adapter: 3  ID: 1
Read mode   : Secure with NO C2, accurate stream, disable cache
Read offset correction : 6
Overread into Lead-In and Lead-Out : No
Used output format : Monkey's Audio Lossless Encoder v3.99 DLL
                     Normal Lossless Compression
Other options      :
    Fill up missing offset samples with silence : Yes
    Delete leading and trailing silent blocks : No
    Installed external ASPI interface
Range status and errors
Selected range
     Filename C:\Documents and Settings\User\My Documents\My Music\ОБРАЗЫ\Paul Gonsalves with Roy Eldridge - Mexican Bandit Meets Pittsburgh Pirate.ape
     Peak level 100.0 %
     Range quality 100.0 %
     CRC 159D080B
     Copy OK
No errors occured
End of status report
 
 
Содержание индексной карты (.CUE)
REM GENRE Jazz
REM DATE 1973
REM DISCID 5B0AED07
REM COMMENT "ExactAudioCopy v0.95b4"
PERFORMER "Paul Gonsalves with Roy Eldridge"
TITLE "Mexican Bandit Meets Pittsburgh Pirate"
FILE "Paul Gonsalves with Roy Eldridge - Mexican Bandit Meets Pittsburgh Pirate.flac" WAVE
  TRACK 01 AUDIO
    TITLE "5400 North"
    PERFORMER "Paul Gonsalves with Roy Eldridge"
    INDEX 01 00:00:00
  TRACK 02 AUDIO
    TITLE "I Cover the Waterfront"
    PERFORMER "Paul Gonsalves with Roy Eldridge"
    INDEX 00 06:52:22
    INDEX 01 06:56:40
  TRACK 03 AUDIO
    TITLE "C Jam Blues"
    PERFORMER "Paul Gonsalves with Roy Eldridge"
    INDEX 00 15:19:17
    INDEX 01 15:23:37
  TRACK 04 AUDIO
    TITLE "Body and Soul"
    PERFORMER "Paul Gonsalves with Roy Eldridge"
    INDEX 00 21:12:72
    INDEX 01 21:15:55
  TRACK 05 AUDIO
    TITLE "It's the Talk of the Town"
    PERFORMER "Paul Gonsalves with Roy Eldridge"
    INDEX 00 28:45:45
    INDEX 01 28:50:15
  TRACK 06 AUDIO
    TITLE "Somebody Loves Me "
    PERFORMER "Paul Gonsalves with Roy Eldridge"
    INDEX 00 35:52:15
    INDEX 01 35:56:12
  TRACK 07 AUDIO
    TITLE "Satin Doll "
    PERFORMER "Paul Gonsalves with Roy Eldridge"
    INDEX 00 40:49:20
    INDEX 01 40:51:52
Download available for power users only.
03:27
331
Нет комментариев. Ваш будет первым!