Поиск

(Bop, Piano Jazz) Art Tatum - 1944 {The Chronological Classics, 825} - 1995, FLAC (tracks+.cue), lossless

(Bop, Piano Jazz) Art Tatum - 1944 {The Chronological Classics, 825} - 1995, FLAC (tracks+.cue), lossless
Треклист:
Art Tatum – 1944 {The Chronological Classics, 825}
Жанр: Bop, Piano Jazz
Год издания диска: 1995
Издатель (лейбл): Classics
Номер по каталогу: 825
Аудиокодек: FLAC (*.flac)
Тип рипа: tracks+.cue
Битрейт аудио: lossless
Продолжительность: 58:51
Источник: вата
Наличие сканов в содержимом раздачи: сетевые
Треклист:
01. The Man I Love (4:16)
02. Dark Eyes (4:44)
03. Body & Soul (4:37)
04. I Know That You Know (4:20)
05. On The Sunny Side Of The Street (4:35)
06. Flying Home (4:15)
07. Boogie (3:49)
08. Topsy (4:11)
09. If I Had You (3:27)
10. Soft Winds (3:55)
11. Fine And Dandy (2:51)
12. It Had To Be You (2:40)
13. Ja Da (2:33)
14. Where Or When (2:48)
15. Sweet And Lovely (2:57)
16. Danny Boy (2:52)
 
 
Лог создания рипа
Exact Audio Copy V1.0 beta 2 from 29. April 2011
EAC extraction logfile from 25. October 2011, 10:57
Art Tatum Trio / 1944
Used drive  : Optiarc DVD RW AD-7170A   Adapter: 1  ID: 0
Read mode               : Secure
Utilize accurate stream : Yes
Defeat audio cache      : Yes
Make use of C2 pointers : No
Read offset correction                      : 48
Overread into Lead-In and Lead-Out          : No
Fill up missing offset samples with silence : Yes
Delete leading and trailing silent blocks   : No
Null samples used in CRC calculations       : Yes
Used interface                              : Native Win32 interface for Win NT & 2000
Gap handling                                : Appended to previous track
Used output format              : User Defined Encoder
Selected bitrate                : 1024 kBit/s
Quality                         : High
Add ID3 tag                     : No
Command line compressor         : C:\Program Files (x86)\Exact Audio Copy\Flac\flac.exe
Additional command line options : -8 -V -T "ARTIST=%artist%" -T "TITLE=%title%" -T "ALBUM=%albumtitle%" -T "DATE=%year%" -T "TRACKNUMBER=%tracknr%" -T "GENRE=%genre%" -T "PERFORMER=%albuminterpret%" -T "COMPOSER=%composer%" %haslyrics%--tag-from-file=LYRICS
TOC of the extracted CD
     Track |   Start  |  Length  | Start sector | End sector
    ---------------------------------------------------------
        1  |  0:00.32 |  4:15.58 |        32    |    19214
        2  |  4:16.15 |  4:44.25 |     19215    |    40539
        3  |  9:00.40 |  4:36.72 |     40540    |    61311
        4  | 13:37.37 |  4:19.48 |     61312    |    80784
        5  | 17:57.10 |  4:35.15 |     80785    |   101424
        6  | 22:32.25 |  4:15.17 |    101425    |   120566
        7  | 26:47.42 |  3:48.60 |    120567    |   137726
        8  | 30:36.27 |  4:11.18 |    137727    |   156569
        9  | 34:47.45 |  3:27.27 |    156570    |   172121
       10  | 38:14.72 |  3:55.13 |    172122    |   189759
       11  | 42:10.10 |  2:50.70 |    189760    |   202579
       12  | 45:01.05 |  2:39.65 |    202580    |   214569
       13  | 47:40.70 |  2:33.17 |    214570    |   226061
       14  | 50:14.12 |  2:48.28 |    226062    |   238689
       15  | 53:02.40 |  2:57.35 |    238690    |   251999
       16  | 56:00.00 |  2:51.50 |    252000    |   264874
Track  1
     Filename E:\Vuze_BitTorrent_DLs\EAC Rips\01 - The Man I Love.wav
     Pre-gap length  0:00:02.42
     Peak level 70.7 %
     Extraction speed 4.4 X
     Track quality 100.0 %
     Test CRC BD663E59
     Copy CRC BD663E59
     Accurately ripped (confidence 1)  [06600816]  (AR v1)
     Copy OK
Track  2
     Filename E:\Vuze_BitTorrent_DLs\EAC Rips\02 - Dark Eyes.wav
     Pre-gap length  0:00:01.97
     Peak level 70.6 %
     Extraction speed 5.0 X
     Track quality 100.0 %
     Test CRC EACC213B
     Copy CRC EACC213B
     Accurately ripped (confidence 1)  [3DF9A4B1]  (AR v1)
     Copy OK
Track  3
     Filename E:\Vuze_BitTorrent_DLs\EAC Rips\03 - Body & Soul.wav
     Pre-gap length  0:00:01.90
     Peak level 59.3 %
     Extraction speed 5.5 X
     Track quality 100.0 %
     Test CRC 89D57988
     Copy CRC 89D57988
     Accurately ripped (confidence 1)  [C547C921]  (AR v1)
     Copy OK
Track  4
     Filename E:\Vuze_BitTorrent_DLs\EAC Rips\04 - I Know That You Know.wav
     Pre-gap length  0:00:01.80
     Peak level 76.8 %
     Extraction speed 5.8 X
     Track quality 100.0 %
     Test CRC AD892934
     Copy CRC AD892934
     Accurately ripped (confidence 1)  [B892E220]  (AR v1)
     Copy OK
Track  5
     Filename E:\Vuze_BitTorrent_DLs\EAC Rips\05 - On The Sunny Side Of The Street.wav
     Pre-gap length  0:00:01.70
     Peak level 78.7 %
     Extraction speed 5.2 X
     Track quality 99.9 %
     Test CRC E682C1B7
     Copy CRC E682C1B7
     Accurately ripped (confidence 1)  [A1235C46]  (AR v1)
     Copy OK
Track  6
     Filename E:\Vuze_BitTorrent_DLs\EAC Rips\06 - Flying Home.wav
     Pre-gap length  0:00:01.77
     Peak level 86.4 %
     Extraction speed 6.5 X
     Track quality 100.0 %
     Test CRC B78AD2BD
     Copy CRC B78AD2BD
     Accurately ripped (confidence 1)  [CC7CF4D3]  (AR v1)
     Copy OK
Track  7
     Filename E:\Vuze_BitTorrent_DLs\EAC Rips\07 - Boogie.wav
     Pre-gap length  0:00:01.76
     Peak level 72.6 %
     Extraction speed 6.8 X
     Track quality 100.0 %
     Test CRC 732ABD6F
     Copy CRC 732ABD6F
     Accurately ripped (confidence 1)  [223EAF22]  (AR v1)
     Copy OK
Track  8
     Filename E:\Vuze_BitTorrent_DLs\EAC Rips\08 - Topsy.wav
     Pre-gap length  0:00:01.62
     Peak level 80.5 %
     Extraction speed 7.1 X
     Track quality 100.0 %
     Test CRC 8FE620A0
     Copy CRC 8FE620A0
     Accurately ripped (confidence 1)  [BE00B63A]  (AR v1)
     Copy OK
Track  9
     Filename E:\Vuze_BitTorrent_DLs\EAC Rips\09 - If I Had You.wav
     Pre-gap length  0:00:01.10
     Peak level 56.6 %
     Extraction speed 7.1 X
     Track quality 100.0 %
     Test CRC 0BB9087E
     Copy CRC 0BB9087E
     Accurately ripped (confidence 1)  [41DE2AA2]  (AR v1)
     Copy OK
Track 10
     Filename E:\Vuze_BitTorrent_DLs\EAC Rips\10 - Soft Winds.wav
     Pre-gap length  0:00:01.66
     Peak level 88.1 %
     Extraction speed 7.5 X
     Track quality 100.0 %
     Test CRC 8ECD1085
     Copy CRC 8ECD1085
     Accurately ripped (confidence 1)  [219E136C]  (AR v1)
     Copy OK
Track 11
     Filename E:\Vuze_BitTorrent_DLs\EAC Rips\11 - Fine And Dandy.wav
     Pre-gap length  0:00:01.66
     Peak level 73.9 %
     Extraction speed 7.3 X
     Track quality 100.0 %
     Test CRC 6A5606CA
     Copy CRC 6A5606CA
     Accurately ripped (confidence 1)  [30EBD1FD]  (AR v1)
     Copy OK
Track 12
     Filename E:\Vuze_BitTorrent_DLs\EAC Rips\12 - It Had To Be You.wav
     Pre-gap length  0:00:01.77
     Peak level 70.9 %
     Extraction speed 7.3 X
     Track quality 100.0 %
     Test CRC 576A25F3
     Copy CRC 576A25F3
     Accurately ripped (confidence 1)  [B30E4C1A]  (AR v1)
     Copy OK
Track 13
     Filename E:\Vuze_BitTorrent_DLs\EAC Rips\13 - Ja Da.wav
     Pre-gap length  0:00:01.77
     Peak level 81.3 %
     Extraction speed 7.3 X
     Track quality 100.0 %
     Test CRC 4E3C79E5
     Copy CRC 4E3C79E5
     Accurately ripped (confidence 1)  [64FFDC81]  (AR v1)
     Copy OK
Track 14
     Filename E:\Vuze_BitTorrent_DLs\EAC Rips\14 - Where Or When.wav
     Pre-gap length  0:00:01.82
     Peak level 68.6 %
     Extraction speed 7.6 X
     Track quality 100.0 %
     Test CRC A491A13C
     Copy CRC A491A13C
     Accurately ripped (confidence 1)  [E56276F3]  (AR v1)
     Copy OK
Track 15
     Filename E:\Vuze_BitTorrent_DLs\EAC Rips\15 - Sweet And Lovely.wav
     Pre-gap length  0:00:01.77
     Peak level 66.8 %
     Extraction speed 7.9 X
     Track quality 100.0 %
     Test CRC 8ECAE4EC
     Copy CRC 8ECAE4EC
     Accurately ripped (confidence 1)  [20EB978D]  (AR v1)
     Copy OK
Track 16
     Filename E:\Vuze_BitTorrent_DLs\EAC Rips\16 - Danny Boy.wav
     Pre-gap length  0:00:01.70
     Peak level 54.2 %
     Extraction speed 6.2 X
     Track quality 99.9 %
     Test CRC 12036C66
     Copy CRC 12036C66
     Accurately ripped (confidence 1)  [D89560B8]  (AR v1)
     Copy OK
All tracks accurately ripped
No errors occurred
End of status report
==== Log checksum 8CB81015BB87D9AF1ED57F282715E72E8E4038E3C60ACC3128969A01C22316D0 ====
 
 
Содержание индексной карты (.CUE)
REM GENRE Jazz
REM DATE 1995
REM DISCID E80DCB10
REM COMMENT "ExactAudioCopy v1.0b2"
PERFORMER "Art Tatum"
TITLE "1944 {Chronological Classics, 825}"
FILE "01. The Man I Love.flac" WAVE
  TRACK 01 AUDIO
    PREGAP 00:00:32
    INDEX 01 00:00:00
  TRACK 02 AUDIO
    INDEX 00 04:13:60
FILE "02. Dark Eyes.flac" WAVE
    INDEX 01 00:00:00
  TRACK 03 AUDIO
    INDEX 00 04:42:32
FILE "03. Body & Soul.flac" WAVE
    INDEX 01 00:00:00
  TRACK 04 AUDIO
    INDEX 00 04:35:12
FILE "04. I Know That You Know.flac" WAVE
    INDEX 01 00:00:00
  TRACK 05 AUDIO
    INDEX 00 04:17:70
FILE "05. On The Sunny Side Of The Street.flac" WAVE
    INDEX 01 00:00:00
  TRACK 06 AUDIO
    INDEX 00 04:33:32
FILE "06. Flying Home.flac" WAVE
    INDEX 01 00:00:00
  TRACK 07 AUDIO
    INDEX 00 04:13:35
FILE "07. Boogie.flac" WAVE
    INDEX 01 00:00:00
  TRACK 08 AUDIO
    INDEX 00 03:47:13
FILE "08. Topsy.flac" WAVE
    INDEX 01 00:00:00
  TRACK 09 AUDIO
    INDEX 00 04:10:10
FILE "09. If I Had You.flac" WAVE
    INDEX 01 00:00:00
  TRACK 10 AUDIO
    INDEX 00 03:25:52
FILE "10. Soft Winds.flac" WAVE
    INDEX 01 00:00:00
  TRACK 11 AUDIO
    INDEX 00 03:53:38
FILE "11. Fine And Dandy.flac" WAVE
    INDEX 01 00:00:00
  TRACK 12 AUDIO
    INDEX 00 02:49:12
FILE "12. It Had To Be You.flac" WAVE
    INDEX 01 00:00:00
  TRACK 13 AUDIO
    INDEX 00 02:38:07
FILE "13. Ja Da.flac" WAVE
    INDEX 01 00:00:00
  TRACK 14 AUDIO
    INDEX 00 02:31:30
FILE "14. Where Or When.flac" WAVE
    INDEX 01 00:00:00
  TRACK 15 AUDIO
    INDEX 00 02:46:45
FILE "15. Sweet And Lovely.flac" WAVE
    INDEX 01 00:00:00
  TRACK 16 AUDIO
    INDEX 00 02:55:57
FILE "16. Danny Boy.flac" WAVE
    INDEX 01 00:00:00
 
___ ___Серия The Chronological Classics на трекере___ ___
02:57
518
Нет комментариев. Ваш будет первым!