Поиск

(Bop, Piano Jazz) [CD] Art Tatum - The Art Tatum Solo Masterpieces, Volume 1 (1953) - 2013 {OJC Remasters Complete Series}, FLAC (tracks+.cue), lossless

(Bop, Piano Jazz) [CD] Art Tatum - The Art Tatum Solo Masterpieces, Volume 1 (1953) - 2013 {OJC Remasters Complete Series}, FLAC (tracks+.cue), lossless
Треклист:
Art Tatum - The Art Tatum Solo Masterpieces, Volume 1 (1953)
Жанр: Bop, Piano Jazz
Носитель: CD
Год издания: 2013
Издатель (лейбл): OJC/Pablo
Номер по каталогу: 0888072346208
Аудиокодек: FLAC (*.flac)
Тип рипа: tracks+.cue
Битрейт аудио: lossless
Продолжительность: 65:29
Источник (релизер): ruskaval
Наличие сканов в содержимом раздачи: да
Треклист:
01. Moonglow (2:58)
02. Love For Sale (4:43)
03. Body And Soul (5:53)
04. Just A-Sittin' And A-Rockin' (4:01)
05. It's Only A Paper Moon (2:42)
06. Have You Met Miss Jones? (4:52)
07. Stay As Sweet As You Are (5:12)
08. My Last Affair (2:56)
09. Willow Weep For Me (4:34)
10. Too Marvelous For Words (3:02)
11. You Took Advantage Of Me (3:20)
12. Sophisticated Lady (3:40)
13. I'm In The Mood For Love (4:31)
14. Everything I Have Is Yours (5:49)
15. Blue Lou (2:46)
16. Embraceable You (4:30)
 
 
Лог создания рипа
Exact Audio Copy V1.0 beta 3 from 29. August 2011
EAC extraction logfile from 10. August 2014, 16:55
Art Tatum / The Art Tatum Solo Masterpieces Vol. 1
Used drive : ATAPI iHAS124 B Adapter: 2 ID: 1
Read mode : Secure
Utilize accurate stream : Yes
Defeat audio cache : Yes
Make use of C2 pointers : No
Read offset correction : 6
Overread into Lead-In and Lead-Out : No
Fill up missing offset samples with silence : Yes
Delete leading and trailing silent blocks : No
Null samples used in CRC calculations : Yes
Used interface : Native Win32 interface for Win NT & 2000
Gap handling : Appended to previous track
Used output format : User Defined Encoder
Selected bitrate : 1024 kBit/s
Quality : High
Add ID3 tag : No
Command line compressor : C:\Program Files (x86)\FLAC Frontend\tools\flac.exe
Additional command line options : -8 -V -T "ARTIST=%artist%" -T "TITLE=%title%" -T "ALBUM=%albumtitle%" -T "DATE=%year%" -T "TRACKNUMBER=%tracknr%" -T "TOTALTRACKS=%numtracks%" -T "GENRE=%genre%" -T "ALBUMARTIST=%albumartist%" -T "ALBUM ARTIST=%albumartist%" -T "COMMENT=EAC Secure Mode, Test & Copy, AccurateRip, FLAC -8" %source%
TOC of the extracted CD
Track | Start | Length | Start sector | End sector
---------------------------------------------------------
1 | 0:00.00 | 2:58.09 | 0 | 13358
2 | 2:58.09 | 4:43.22 | 13359 | 34605
3 | 7:41.31 | 5:52.55 | 34606 | 61060
4 | 13:34.11 | 4:01.05 | 61061 | 79140
5 | 17:35.16 | 2:42.13 | 79141 | 91303
6 | 20:17.29 | 4:52.15 | 91304 | 113218
7 | 25:09.44 | 5:11.46 | 113219 | 136589
8 | 30:21.15 | 2:55.45 | 136590 | 149759
9 | 33:16.60 | 4:33.74 | 149760 | 170308
10 | 37:50.59 | 3:01.70 | 170309 | 183953
11 | 40:52.54 | 3:20.33 | 183954 | 198986
12 | 44:13.12 | 3:39.59 | 198987 | 215470
13 | 47:52.71 | 4:30.45 | 215471 | 235765
14 | 52:23.41 | 5:49.14 | 235766 | 261954
15 | 58:12.55 | 2:46.26 | 261955 | 274430
16 | 60:59.06 | 4:30.07 | 274431 | 294687
Track 1
Filename C:\Art Tatum - The Art Tatum Solo Masterpieces Vol. 1 (1953) {2013 Pablo 40th} [OJC Remasters Complete Series]\01 - Moonglow.wav
Pre-gap length 0:00:02.00
Peak level 97.7 %
Extraction speed 1.8 X
Track quality 100.0 %
Test CRC 8B00485A
Copy CRC 8B00485A
Accurately ripped (confidence 2) [889C72C0] (AR v2)
Copy OK
Track 2
Filename C:\Art Tatum - The Art Tatum Solo Masterpieces Vol. 1 (1953) {2013 Pablo 40th} [OJC Remasters Complete Series]\02 - Love For Sale.wav
Peak level 97.7 %
Extraction speed 2.1 X
Track quality 100.0 %
Test CRC C6288535
Copy CRC C6288535
Accurately ripped (confidence 2) [215BC046] (AR v2)
Copy OK
Track 3
Filename C:\Art Tatum - The Art Tatum Solo Masterpieces Vol. 1 (1953) {2013 Pablo 40th} [OJC Remasters Complete Series]\03 - Body And Soul.wav
Peak level 97.8 %
Extraction speed 2.4 X
Track quality 100.0 %
Test CRC A8F18AC7
Copy CRC A8F18AC7
Accurately ripped (confidence 2) [BD2B55AC] (AR v2)
Copy OK
Track 4
Filename C:\Art Tatum - The Art Tatum Solo Masterpieces Vol. 1 (1953) {2013 Pablo 40th} [OJC Remasters Complete Series]\04 - Just A-Sittin' And A-Rockin'.wav
Peak level 97.8 %
Extraction speed 2.5 X
Track quality 100.0 %
Test CRC 8D9A544B
Copy CRC 8D9A544B
Accurately ripped (confidence 2) [FDF651C0] (AR v2)
Copy OK
Track 5
Filename C:\Art Tatum - The Art Tatum Solo Masterpieces Vol. 1 (1953) {2013 Pablo 40th} [OJC Remasters Complete Series]\05 - It's Only A Paper Moon.wav
Peak level 97.8 %
Extraction speed 2.4 X
Track quality 100.0 %
Test CRC CF381A1F
Copy CRC CF381A1F
Accurately ripped (confidence 2) [94D39ED2] (AR v2)
Copy OK
Track 6
Filename C:\Art Tatum - The Art Tatum Solo Masterpieces Vol. 1 (1953) {2013 Pablo 40th} [OJC Remasters Complete Series]\06 - Have You Met Miss Jones.wav
Peak level 97.7 %
Extraction speed 2.8 X
Track quality 100.0 %
Test CRC 8891C0E8
Copy CRC 8891C0E8
Accurately ripped (confidence 2) [9AA23D9B] (AR v2)
Copy OK
Track 7
Filename C:\Art Tatum - The Art Tatum Solo Masterpieces Vol. 1 (1953) {2013 Pablo 40th} [OJC Remasters Complete Series]\07 - Stay As Sweet As You Are.wav
Peak level 97.7 %
Extraction speed 3.0 X
Track quality 100.0 %
Test CRC F0350410
Copy CRC F0350410
Accurately ripped (confidence 2) [6875BD16] (AR v2)
Copy OK
Track 8
Filename C:\Art Tatum - The Art Tatum Solo Masterpieces Vol. 1 (1953) {2013 Pablo 40th} [OJC Remasters Complete Series]\08 - My Last Affair.wav
Peak level 97.7 %
Extraction speed 1.9 X
Track quality 99.9 %
Test CRC 28C34C73
Copy CRC 28C34C73
Accurately ripped (confidence 2) [5E68E3AF] (AR v2)
Copy OK
Track 9
Filename C:\Art Tatum - The Art Tatum Solo Masterpieces Vol. 1 (1953) {2013 Pablo 40th} [OJC Remasters Complete Series]\09 - Willow Weep For Me.wav
Peak level 97.7 %
Extraction speed 3.2 X
Track quality 100.0 %
Test CRC 5C9CE05D
Copy CRC 5C9CE05D
Accurately ripped (confidence 2) [D759F082] (AR v2)
Copy OK
Track 10
Filename C:\Art Tatum - The Art Tatum Solo Masterpieces Vol. 1 (1953) {2013 Pablo 40th} [OJC Remasters Complete Series]\10 - Too Marvelous For Words.wav
Peak level 97.7 %
Extraction speed 2.1 X
Track quality 99.9 %
Test CRC 0F94C913
Copy CRC 0F94C913
Accurately ripped (confidence 2) [5B0D3256] (AR v2)
Copy OK
Track 11
Filename C:\Art Tatum - The Art Tatum Solo Masterpieces Vol. 1 (1953) {2013 Pablo 40th} [OJC Remasters Complete Series]\11 - You Took Advantage Of Me.wav
Peak level 97.8 %
Extraction speed 3.3 X
Track quality 100.0 %
Test CRC E8FA74DC
Copy CRC E8FA74DC
Accurately ripped (confidence 2) [2C64DED1] (AR v2)
Copy OK
Track 12
Filename C:\Art Tatum - The Art Tatum Solo Masterpieces Vol. 1 (1953) {2013 Pablo 40th} [OJC Remasters Complete Series]\12 - Sophisticated Lady.wav
Peak level 97.7 %
Extraction speed 2.4 X
Track quality 99.9 %
Test CRC 64FB49EB
Copy CRC 64FB49EB
Accurately ripped (confidence 2) [ACAB9203] (AR v2)
Copy OK
Track 13
Filename C:\Art Tatum - The Art Tatum Solo Masterpieces Vol. 1 (1953) {2013 Pablo 40th} [OJC Remasters Complete Series]\13 - I'm In The Mood For Love.wav
Peak level 97.7 %
Extraction speed 2.7 X
Track quality 99.9 %
Test CRC D78EAAD4
Copy CRC D78EAAD4
Accurately ripped (confidence 2) [7357B474] (AR v2)
Copy OK
Track 14
Filename C:\Art Tatum - The Art Tatum Solo Masterpieces Vol. 1 (1953) {2013 Pablo 40th} [OJC Remasters Complete Series]\14 - Everything I Have Is Yours.wav
Peak level 97.7 %
Extraction speed 3.9 X
Track quality 100.0 %
Test CRC A84F63BB
Copy CRC A84F63BB
Accurately ripped (confidence 2) [A8665E32] (AR v2)
Copy OK
Track 15
Filename C:\Art Tatum - The Art Tatum Solo Masterpieces Vol. 1 (1953) {2013 Pablo 40th} [OJC Remasters Complete Series]\15 - Blue Lou.wav
Peak level 97.7 %
Extraction speed 2.4 X
Track quality 99.9 %
Test CRC D885CFD7
Copy CRC D885CFD7
Accurately ripped (confidence 2) [5EE8F3E2] (AR v2)
Copy OK
Track 16
Filename C:\Art Tatum - The Art Tatum Solo Masterpieces Vol. 1 (1953) {2013 Pablo 40th} [OJC Remasters Complete Series]\16 - Embraceable You.wav
Peak level 97.7 %
Extraction speed 4.0 X
Track quality 100.0 %
Test CRC 6B09F34E
Copy CRC 6B09F34E
Accurately ripped (confidence 1) [98E37E51] (AR v2)
Copy OK
All tracks accurately ripped
No errors occurred
End of status report
==== Log checksum 3F89B4992290ACA78F02FB01BBAB35F554409E6D1CDD6EA3790CAB5BA6255179 ====
 
Содержание индексной карты (.CUE)
REM GENRE Jazz
REM DATE 1953
REM DISCID E60F5910
REM COMMENT "ExactAudioCopy v1.0b3"
PERFORMER "Art Tatum"
TITLE "The Art Tatum Solo Masterpieces Vol. 1"
FILE "01 - Moonglow.wav" WAVE
TRACK 01 AUDIO
TITLE "Moonglow"
PERFORMER "Art Tatum"
INDEX 01 00:00:00
FILE "02 - Love For Sale.wav" WAVE
TRACK 02 AUDIO
TITLE "Love For Sale"
PERFORMER "Art Tatum"
INDEX 01 00:00:00
FILE "03 - Body And Soul.wav" WAVE
TRACK 03 AUDIO
TITLE "Body And Soul"
PERFORMER "Art Tatum"
INDEX 01 00:00:00
FILE "04 - Just A-Sittin' And A-Rockin'.wav" WAVE
TRACK 04 AUDIO
TITLE "Just A-Sittin' And A-Rockin'"
PERFORMER "Art Tatum"
INDEX 01 00:00:00
FILE "05 - It's Only A Paper Moon.wav" WAVE
TRACK 05 AUDIO
TITLE "It's Only A Paper Moon"
PERFORMER "Art Tatum"
INDEX 01 00:00:00
FILE "06 - Have You Met Miss Jones.wav" WAVE
TRACK 06 AUDIO
TITLE "Have You Met Miss Jones?"
PERFORMER "Art Tatum"
INDEX 01 00:00:00
FILE "07 - Stay As Sweet As You Are.wav" WAVE
TRACK 07 AUDIO
TITLE "Stay As Sweet As You Are"
PERFORMER "Art Tatum"
INDEX 01 00:00:00
FILE "08 - My Last Affair.wav" WAVE
TRACK 08 AUDIO
TITLE "My Last Affair"
PERFORMER "Art Tatum"
INDEX 01 00:00:00
FILE "09 - Willow Weep For Me.wav" WAVE
TRACK 09 AUDIO
TITLE "Willow Weep For Me"
PERFORMER "Art Tatum"
INDEX 01 00:00:00
FILE "10 - Too Marvelous For Words.wav" WAVE
TRACK 10 AUDIO
TITLE "Too Marvelous For Words"
PERFORMER "Art Tatum"
INDEX 01 00:00:00
FILE "11 - You Took Advantage Of Me.wav" WAVE
TRACK 11 AUDIO
TITLE "You Took Advantage Of Me"
PERFORMER "Art Tatum"
INDEX 01 00:00:00
FILE "12 - Sophisticated Lady.wav" WAVE
TRACK 12 AUDIO
TITLE "Sophisticated Lady"
PERFORMER "Art Tatum"
INDEX 01 00:00:00
FILE "13 - I'm In The Mood For Love.wav" WAVE
TRACK 13 AUDIO
TITLE "I'm In The Mood For Love"
PERFORMER "Art Tatum"
INDEX 01 00:00:00
FILE "14 - Everything I Have Is Yours.wav" WAVE
TRACK 14 AUDIO
TITLE "Everything I Have Is Yours"
PERFORMER "Art Tatum"
INDEX 01 00:00:00
FILE "15 - Blue Lou.wav" WAVE
TRACK 15 AUDIO
TITLE "Blue Lou"
PERFORMER "Art Tatum"
INDEX 01 00:00:00
FILE "16 - Embraceable You.wav" WAVE
TRACK 16 AUDIO
TITLE "Embraceable You"
PERFORMER "Art Tatum"
INDEX 01 00:00:00
15:25
526
Нет комментариев. Ваш будет первым!