Поиск

(Bop) Stan Getz & Dizzy Gillespie - Verve Jazz Masters 25 - 1994, FLAC (tracks+.cue), lossless

(Bop) Stan Getz & Dizzy Gillespie - Verve Jazz Masters 25 - 1994, FLAC (tracks+.cue), lossless
Треклист:
Stan Getz & Dizzy Gillespie – Verve Jazz Masters 25
Жанр: Bop
Год издания: 1994
Издатель (лейбл): Verve
Номер по каталогу: 521 852-2
Аудиокодек: FLAC (*.flac)
Тип рипа: tracks+.cue
Битрейт аудио: lossless
Продолжительность: 63:31
Источник (релизер): What.cd (grub)
Наличие сканов в содержимом раздачи: нет
Треклист:
01. It Don't Mean A Thing (If It Ain't Got That Swing) (6:41)
02. Dark Eyes (12:11)
03. Bebop (12:50)
04. It's The Talk Of The Town (6:51)
05. The Mooche (11:17)
06. The Way You Look Tonight (13:41)
Rec.: 1953 (1, 4), 1956 (2, 3), 1957 (6), 1960 (5).
 
 
Лог создания рипа
X Lossless Decoder version 20130127 (142.3)
XLD extraction logfile from 2013-04-02 00:05:14 -0500
Stan Getz & Dizzie Gillespie / Verve Jazz Masters 25
Used drive : MATSHITA DVD-R UJ-898 (revision HE13)
Media type : Pressed CD
Ripper mode : XLD Secure Ripper
Disable audio cache : OK for the drive with a cache less than 1375KiB
Make use of C2 pointers : NO
Read offset correction : 102
Max retry count : 20
Gap status : Analyzed, Appended (except HTOA)
TOC of the extracted CD
Track | Start | Length | Start sector | End sector
---------------------------------------------------------
1 | 00:00:00 | 06:41:00 | 0 | 30074
2 | 06:41:00 | 12:11:20 | 30075 | 84919
3 | 18:52:20 | 12:50:17 | 84920 | 142686
4 | 31:42:37 | 06:50:53 | 142687 | 173489
5 | 38:33:15 | 11:17:12 | 173490 | 224276
6 | 49:50:27 | 13:40:55 | 224277 | 285831
AccurateRip Summary (DiscID: 000e5ce1-004dd04b-410ee306)
Track 01 : OK (v1, confidence 11/11)
Track 02 : OK (v1, confidence 10/10)
Track 03 : OK (v1, confidence 11/11)
Track 04 : OK (v1, confidence 11/11)
Track 05 : OK (v1, confidence 11/11)
Track 06 : OK (v1, confidence 12/12)
->All tracks accurately ripped.
All Tracks
Album gain : -3.21 dB
Peak : 1.000000
Statistics
Read error : 0
Jitter error (maybe fixed) : 0
Retry sector count : 0
Damaged sector count : 0
Track 01
Filename : /Users/johnrusch/Documents/rips/Stan Getz & Dizzie Gillespie - Verve Jazz Masters 25 (1953) [FLAC]/01 It Don't Mean A Thing (If It Ain't Got That Swing)
Stan Getz & Dizzie Gillespie - Verve Jazz Masters 25 (1953) [FLAC]/01 It Don't Mean A Thing (If It Ain't Got That Swing)
Stan Getz & Dizzie Gillespie - Verve Jazz Masters 25 (1953) [FLAC]/01 It Don't Mean A Thing (If It Ain't Got That Swing).flac
Pre-gap length : 00:02:00
Track gain : -3.58 dB
Peak : 0.889893
CRC32 hash (test run) : 77FBF594
CRC32 hash : 77FBF594
CRC32 hash (skip zero) : B6AEE971
AccurateRip v1 signature : 08C470C7
AccurateRip v2 signature : 2B012A78
->Accurately ripped (v1, confidence 11/11)
Statistics
Read error : 0
Jitter error (maybe fixed) : 0
Retry sector count : 0
Damaged sector count : 0
Track 02
Filename : /Users/johnrusch/Documents/rips/Stan Getz & Dizzie Gillespie - Verve Jazz Masters 25 (1956) [FLAC]/02 Dark Eyes
Stan Getz & Dizzie Gillespie - Verve Jazz Masters 25 (1956) [FLAC]/02 Dark Eyes
Stan Getz & Dizzie Gillespie - Verve Jazz Masters 25 (1956) [FLAC]/02 Dark Eyes.flac
Pre-gap length : 00:03:38
Track gain : -4.61 dB
Peak : 1.000000
CRC32 hash (test run) : 8F17DE0F
CRC32 hash : 8F17DE0F
CRC32 hash (skip zero) : D14F2E7A
AccurateRip v1 signature : 8EC4A60F
AccurateRip v2 signature : 5C142FF1
->Accurately ripped (v1, confidence 10/10)
Statistics
Read error : 0
Jitter error (maybe fixed) : 0
Retry sector count : 0
Damaged sector count : 0
Track 03
Filename : /Users/johnrusch/Documents/rips/Stan Getz & Dizzie Gillespie - Verve Jazz Masters 25 (1956) [FLAC]/03 Bebop
Stan Getz & Dizzie Gillespie - Verve Jazz Masters 25 (1956) [FLAC]/03 Bebop
Stan Getz & Dizzie Gillespie - Verve Jazz Masters 25 (1956) [FLAC]/03 Bebop.flac
Pre-gap length : 00:03:38
Track gain : -2.53 dB
Peak : 0.882080
CRC32 hash (test run) : CCBD29B5
CRC32 hash : CCBD29B5
CRC32 hash (skip zero) : 5DB6571B
AccurateRip v1 signature : 845A534B
AccurateRip v2 signature : B9863EF9
->Accurately ripped (v1, confidence 11/11)
Statistics
Read error : 0
Jitter error (maybe fixed) : 0
Retry sector count : 0
Damaged sector count : 0
Track 04
Filename : /Users/johnrusch/Documents/rips/Stan Getz & Dizzie Gillespie - Verve Jazz Masters 25 (1953) [FLAC]/04 It's The Talk Of The Town
Stan Getz & Dizzie Gillespie - Verve Jazz Masters 25 (1953) [FLAC]/04 It's The Talk Of The Town
Stan Getz & Dizzie Gillespie - Verve Jazz Masters 25 (1953) [FLAC]/04 It's The Talk Of The Town.flac
Pre-gap length : 00:03:37
Track gain : -2.64 dB
Peak : 0.880432
CRC32 hash (test run) : 72C2D065
CRC32 hash : 72C2D065
CRC32 hash (skip zero) : 50A9FF26
AccurateRip v1 signature : 2844CBC7
AccurateRip v2 signature : 7C2DC9AA
->Accurately ripped (v1, confidence 11/11)
Statistics
Read error : 0
Jitter error (maybe fixed) : 0
Retry sector count : 0
Damaged sector count : 0
Track 05
Filename : /Users/johnrusch/Documents/rips/Stan Getz & Dizzie Gillespie - Verve Jazz Masters 25 (1960) [FLAC]/05 The Mooche
Stan Getz & Dizzie Gillespie - Verve Jazz Masters 25 (1960) [FLAC]/05 The Mooche
Stan Getz & Dizzie Gillespie - Verve Jazz Masters 25 (1960) [FLAC]/05 The Mooche.flac
Pre-gap length : 00:03:38
Track gain : 1.14 dB
Peak : 0.660278
CRC32 hash (test run) : 517A3794
CRC32 hash : 517A3794
CRC32 hash (skip zero) : 57FEED99
AccurateRip v1 signature : 9B779D75
AccurateRip v2 signature : 50825116
->Accurately ripped (v1, confidence 11/11)
Statistics
Read error : 0
Jitter error (maybe fixed) : 0
Retry sector count : 0
Damaged sector count : 0
Track 06
Filename : /Users/johnrusch/Documents/rips/Stan Getz & Dizzie Gillespie - Verve Jazz Masters 25 (1957) [FLAC]/06 The Way You Look Tonight
Stan Getz & Dizzie Gillespie - Verve Jazz Masters 25 (1957) [FLAC]/06 The Way You Look Tonight
Stan Getz & Dizzie Gillespie - Verve Jazz Masters 25 (1957) [FLAC]/06 The Way You Look Tonight.flac
Pre-gap length : 00:03:37
Track gain : -3.71 dB
Peak : 0.861389
CRC32 hash (test run) : 4E26E991
CRC32 hash : 4E26E991
CRC32 hash (skip zero) : 63D77D40
AccurateRip v1 signature : 9DB3EB7B
AccurateRip v2 signature : 0189DA2F
->Accurately ripped (v1, confidence 12/12)
Statistics
Read error : 0
Jitter error (maybe fixed) : 0
Retry sector count : 0
Damaged sector count : 0
No errors occurred
End of status report
 
Содержание индексной карты (.CUE)
TITLE "Verve Jazz Masters 25"
PERFORMER "Stan Getz & Dizzy Gillespie"
CATALOG 7314521852250
REM GENRE Jazz
REM DATE 1994
REM DISCID 410EE306
FILE "01. It Don't Mean A Thing (If It Ain't Got That Swing).flac" WAVE
TRACK 01 AUDIO
TITLE "It Don't Mean A Thing (If It Ain't Got That Swing)"
SONGWRITER "Duke Ellington - Erving Mills"
REM DATE 1953
INDEX 01 00:00:00
TRACK 02 AUDIO
TITLE "Dark Eyes"
SONGWRITER "Traditional"
REM DATE 1956
INDEX 00 06:37:37
FILE "02. Dark Eyes.flac" WAVE
INDEX 01 00:00:00
TRACK 03 AUDIO
TITLE "Bebop"
SONGWRITER "John Birks Gillespie"
REM DATE 1956
INDEX 00 12:07:57
FILE "03. Bebop.flac" WAVE
INDEX 01 00:00:00
TRACK 04 AUDIO
TITLE "It's The Talk Of The Town"
SONGWRITER "Jerry Livingston - Marty Symes - Al J. Neiburg"
REM DATE 1953
INDEX 00 12:46:55
FILE "04. It's The Talk Of The Town.flac" WAVE
INDEX 01 00:00:00
TRACK 05 AUDIO
TITLE "The Mooche"
SONGWRITER "Duke Ellington - Erving Mills"
REM DATE 1960
INDEX 00 06:47:15
FILE "05. The Mooche.flac" WAVE
INDEX 01 00:00:00
TRACK 06 AUDIO
TITLE "The Way You Look Tonight"
SONGWRITER "Jerome Kern & Dorothy Fields"
REM DATE 1957
INDEX 00 11:13:50
FILE "06. The Way You Look Tonight.flac" WAVE
INDEX 01 00:00:00
 
Лог проверки качества
AUDIOCHECKER v2.0 beta (build 457) - by Dester - opdester@freemail.hu
~~~~~~~~~~~~~~~~~~~~~~~~~~~~~~~~~~
-=== DO NOT EDIT THIS FILE! ===-
Path: ...\VJM 25 - Stan Getz & Dizzy Gillespie
1 -=- 01. It Don't Mean A Thing (If It Ain't Got That Swing).flac -=- CDDA (100%)
2 -=- 02. Dark Eyes.flac -=- CDDA (100%)
3 -=- 03. Bebop.flac -=- CDDA (100%)
4 -=- 04. It's The Talk Of The Town.flac -=- CDDA (100%)
5 -=- 05. The Mooche.flac -=- CDDA (100%)
6 -=- 06. The Way You Look Tonight.flac -=- CDDA (100%)
Summary 100,00% CDDA
137624596
05:21
759
Нет комментариев. Ваш будет первым!