Поиск

(Bop) Tal Farlow — Verve Jazz Masters 41 — 1995, FLAC (tracks+.cue), lossless

Треклист:
Tal Farlow — Verve Jazz Masters 41
Жанр: Bop
Год издания диска: 1995
Лейбл: Verve
Номер по каталогу: 527 365-2
Аудиокодек: FLAC (*.flac)
Тип рипа: tracks+.cue
Битрейт аудио: lossless
Продолжительность: 73:02
Риппер: smacito
Сканы: добавлены найденные в сети
Треклист:
01. Autumn Leaves (1:45)
02. It's You Or No One (3:29)
03. Little Girl Blue (3:26)
04. Out of Nowhere (5:30)
05. Ev'rything I've Got (3:32)
06. Isn't It Romantic? (10:15)
07. Meteor (6:40)
08. Lorinesque (4:19)
09. The Love Nest (2:46)
10. Yesterdays (5:56)
11. With The Wind And The Rain In Your Hair (3:05)
12. I Remember You (4:16)
13. Moonlight Becomes You (4:28)
14. Autumn In New York (5:07)
15. Stella By Starlight (3:36)
16. Cherokee (4:52)Альбомы серии   Verve Jazz Masters   на трекере  
 
Лог создания рипа
Exact Audio Copy V1.0 beta 1 from 15. November 2010
EAC extraction logfile from 4. June 2011, 12:21
Tal Farlow / Verve Jazz Masters 41
Used drive : HL-DT-STDVDRAM GT30N Adapter: 0 ID: 1
Read mode : Secure
Utilize accurate stream : Yes
Defeat audio cache : Yes
Make use of C2 pointers : No
Read offset correction : 103
Overread into Lead-In and Lead-Out : No
Fill up missing offset samples with silence : Yes
Delete leading and trailing silent blocks : No
Null samples used in CRC calculations : Yes
Used interface : Native Win32 interface for Win NT & 2000
Gap handling : Appended to previous track
Used output format : User Defined Encoder
Selected bitrate : 1024 kBit/s
Quality : High
Add ID3 tag : No
Command line compressor : C:\Exact Audio Copy\Flac\flac.exe
Additional command line options : -V -8 -T "artist=%a" -T "title=%t" -T "album=%g" -T "date=%y" -T "tracknumber=%n" -T "genre=%m" %s
TOC of the extracted CD
Track | Start | Length | Start sector | End sector
---------------------------------------------------------
1 | 0:00.00 | 1:45.15 | 0 | 7889
2 | 1:45.15 | 3:28.70 | 7890 | 23559
3 | 5:14.10 | 3:25.62 | 23560 | 38996
4 | 8:39.72 | 5:30.33 | 38997 | 63779
5 | 14:10.30 | 3:31.70 | 63780 | 79674
6 | 17:42.25 | 10:15.30 | 79675 | 125829
7 | 27:57.55 | 6:39.47 | 125830 | 155801
8 | 34:37.27 | 4:18.68 | 155802 | 175219
9 | 38:56.20 | 2:45.70 | 175220 | 187664
10 | 41:42.15 | 5:56.02 | 187665 | 214366
11 | 47:38.17 | 3:04.50 | 214367 | 228216
12 | 50:42.67 | 4:16.23 | 228217 | 247439
13 | 54:59.15 | 4:27.42 | 247440 | 267506
14 | 59:26.57 | 5:06.68 | 267507 | 290524
15 | 64:33.50 | 3:35.52 | 290525 | 306701
16 | 68:09.27 | 4:52.20 | 306702 | 328621
Track 1
Filename D:\My Documents\My Music\What.cd project\Tal Farlow - 1995 - Verve Jazz Masters 41 [FLAC]\01. Tal Farlow - Autumn Leaves.wav
Pre-gap length 0:00:02.00
Peak level 53.9 %
Extraction speed 1.0 X
Track quality 100.0 %
Test CRC 3EF6B840
Copy CRC 3EF6B840
Accurately ripped (confidence 3) [0EEE8423]
Copy OK
Track 2
Filename D:\My Documents\My Music\What.cd project\Tal Farlow - 1995 - Verve Jazz Masters 41 [FLAC]\02. Tal Farlow - It's You Or No One.wav
Pre-gap length 0:00:03.80
Peak level 57.6 %
Extraction speed 1.3 X
Track quality 100.0 %
Test CRC EB509E3E
Copy CRC EB509E3E
Accurately ripped (confidence 3) [CB36F56F]
Copy OK
Track 3
Filename D:\My Documents\My Music\What.cd project\Tal Farlow - 1995 - Verve Jazz Masters 41 [FLAC]\03. Tal Farlow - Little Girl Blue.wav
Pre-gap length 0:00:02.73
Peak level 70.7 %
Extraction speed 1.4 X
Track quality 100.0 %
Test CRC 8B714236
Copy CRC 8B714236
Accurately ripped (confidence 3) [4E849509]
Copy OK
Track 4
Filename D:\My Documents\My Music\What.cd project\Tal Farlow - 1995 - Verve Jazz Masters 41 [FLAC]\04. Tal Farlow - Out of Nowhere.wav
Pre-gap length 0:00:02.73
Peak level 62.9 %
Extraction speed 1.6 X
Track quality 100.0 %
Test CRC 3E3098AF
Copy CRC 3E3098AF
Accurately ripped (confidence 3) [25B07286]
Copy OK
Track 5
Filename D:\My Documents\My Music\What.cd project\Tal Farlow - 1995 - Verve Jazz Masters 41 [FLAC]\05. Tal Farlow - Ev'rything I've Got.wav
Pre-gap length 0:00:02.73
Peak level 73.2 %
Extraction speed 1.6 X
Track quality 100.0 %
Test CRC 15B948B1
Copy CRC 15B948B1
Accurately ripped (confidence 3) [367CF047]
Copy OK
Track 6
Filename D:\My Documents\My Music\What.cd project\Tal Farlow - 1995 - Verve Jazz Masters 41 [FLAC]\06. Tal Farlow - Isn't It Romantic.wav
Pre-gap length 0:00:02.73
Peak level 76.9 %
Extraction speed 2.0 X
Track quality 100.0 %
Test CRC 7B23E884
Copy CRC 7B23E884
Accurately ripped (confidence 3) [10D5C927]
Copy OK
Track 7
Filename D:\My Documents\My Music\What.cd project\Tal Farlow - 1995 - Verve Jazz Masters 41 [FLAC]\07. Tal Farlow - Meteor.wav
Pre-gap length 0:00:02.73
Peak level 71.5 %
Extraction speed 2.1 X
Track quality 100.0 %
Test CRC F43B0728
Copy CRC F43B0728
Accurately ripped (confidence 3) [1BF587D6]
Copy OK
Track 8
Filename D:\My Documents\My Music\What.cd project\Tal Farlow - 1995 - Verve Jazz Masters 41 [FLAC]\08. Tal Farlow - Lorinesque.wav
Pre-gap length 0:00:02.73
Peak level 64.0 %
Extraction speed 2.1 X
Track quality 100.0 %
Test CRC 2D8A21CE
Copy CRC 2D8A21CE
Accurately ripped (confidence 3) [786807DC]
Copy OK
Track 9
Filename D:\My Documents\My Music\What.cd project\Tal Farlow - 1995 - Verve Jazz Masters 41 [FLAC]\09. Tal Farlow - The Love Nest.wav
Pre-gap length 0:00:02.73
Peak level 64.7 %
Extraction speed 2.0 X
Track quality 100.0 %
Test CRC 50F8807D
Copy CRC 50F8807D
Accurately ripped (confidence 3) [25E9CB9C]
Copy OK
Track 10
Filename D:\My Documents\My Music\What.cd project\Tal Farlow - 1995 - Verve Jazz Masters 41 [FLAC]\10. Tal Farlow - Yesterdays.wav
Pre-gap length 0:00:02.73
Peak level 69.1 %
Extraction speed 2.3 X
Track quality 100.0 %
Test CRC 2CD02928
Copy CRC 2CD02928
Accurately ripped (confidence 3) [CE9EDF14]
Copy OK
Track 11
Filename D:\My Documents\My Music\What.cd project\Tal Farlow - 1995 - Verve Jazz Masters 41 [FLAC]\11. Tal Farlow - With The Wind And The Rain In Your Hair.wav
Pre-gap length 0:00:02.73
Peak level 69.6 %
Extraction speed 2.2 X
Track quality 100.0 %
Test CRC D905F940
Copy CRC D905F940
Accurately ripped (confidence 3) [0D310CB2]
Copy OK
Track 12
Filename D:\My Documents\My Music\What.cd project\Tal Farlow - 1995 - Verve Jazz Masters 41 [FLAC]\12. Tal Farlow - I Remember You.wav
Pre-gap length 0:00:02.73
Peak level 65.8 %
Extraction speed 2.4 X
Track quality 100.0 %
Test CRC D85C9DFD
Copy CRC D85C9DFD
Accurately ripped (confidence 3) [488D73B4]
Copy OK
Track 13
Filename D:\My Documents\My Music\What.cd project\Tal Farlow - 1995 - Verve Jazz Masters 41 [FLAC]\13. Tal Farlow - Moonlight Becomes You.wav
Pre-gap length 0:00:02.73
Peak level 73.0 %
Extraction speed 2.4 X
Track quality 100.0 %
Test CRC A321CD4D
Copy CRC A321CD4D
Accurately ripped (confidence 3) [BA8991D2]
Copy OK
Track 14
Filename D:\My Documents\My Music\What.cd project\Tal Farlow - 1995 - Verve Jazz Masters 41 [FLAC]\14. Tal Farlow - Autumn In New York.wav
Pre-gap length 0:00:02.73
Peak level 87.1 %
Extraction speed 2.6 X
Track quality 100.0 %
Test CRC 437DB442
Copy CRC 437DB442
Accurately ripped (confidence 3) [08613B0E]
Copy OK
Track 15
Filename D:\My Documents\My Music\What.cd project\Tal Farlow - 1995 - Verve Jazz Masters 41 [FLAC]\15. Tal Farlow - Stella By Starlight.wav
Pre-gap length 0:00:02.73
Peak level 60.2 %
Extraction speed 2.5 X
Track quality 100.0 %
Test CRC BC171C2C
Copy CRC BC171C2C
Accurately ripped (confidence 3) [CF187397]
Copy OK
Track 16
Filename D:\My Documents\My Music\What.cd project\Tal Farlow - 1995 - Verve Jazz Masters 41 [FLAC]\16. Tal Farlow - Cherokee.wav
Pre-gap length 0:00:02.73
Peak level 77.4 %
Extraction speed 2.7 X
Track quality 100.0 %
Test CRC 7118C2AD
Copy CRC 7118C2AD
Accurately ripped (confidence 3) [5906D5F9]
Copy OK
All tracks accurately ripped
No errors occurred
End of status report
==== Log checksum 99D80B1649D04AFCA26515D7826738EACCF5FB35F0DC9195A16605A24CDEDA14 ====
 
Содержание индексной карты (.CUE)
REM GENRE Jazz
REM DATE 1995
REM DISCID D7111D10
REM COMMENT "ExactAudioCopy v1.0b1"
FILE "01. Autumn Leaves.flac" WAVE
TRACK 01 AUDIO
INDEX 01 00:00:00
TRACK 02 AUDIO
INDEX 00 01:41:30
FILE "02. It's You Or No One.flac" WAVE
INDEX 01 00:00:00
TRACK 03 AUDIO
INDEX 00 03:26:15
FILE "03. Little Girl Blue.flac" WAVE
INDEX 01 00:00:00
TRACK 04 AUDIO
INDEX 00 03:23:07
FILE "04. Out of Nowhere.flac" WAVE
INDEX 01 00:00:00
TRACK 05 AUDIO
INDEX 00 05:27:53
FILE "05. Ev'rything I've Got.flac" WAVE
INDEX 01 00:00:00
TRACK 06 AUDIO
INDEX 00 03:29:15
FILE "06. Isn't It Romantic.flac" WAVE
INDEX 01 00:00:00
TRACK 07 AUDIO
INDEX 00 10:12:50
FILE "07. Meteor.flac" WAVE
INDEX 01 00:00:00
TRACK 08 AUDIO
INDEX 00 06:36:67
FILE "08. Lorinesque.flac" WAVE
INDEX 01 00:00:00
TRACK 09 AUDIO
INDEX 00 04:16:13
FILE "09. The Love Nest.flac" WAVE
INDEX 01 00:00:00
TRACK 10 AUDIO
INDEX 00 02:43:15
FILE "10. Yesterdays.flac" WAVE
INDEX 01 00:00:00
TRACK 11 AUDIO
INDEX 00 05:53:22
FILE "11. With The Wind And The Rain In Your Hair.flac" WAVE
INDEX 01 00:00:00
TRACK 12 AUDIO
INDEX 00 03:01:70
FILE "12. I Remember You.flac" WAVE
INDEX 01 00:00:00
TRACK 13 AUDIO
INDEX 00 04:13:43
FILE "13. Moonlight Becomes You.flac" WAVE
INDEX 01 00:00:00
TRACK 14 AUDIO
INDEX 00 04:24:62
FILE "14. Autumn In New York.flac" WAVE
INDEX 01 00:00:00
TRACK 15 AUDIO
INDEX 00 05:04:13
FILE "15. Stella By Starlight.flac" WAVE
INDEX 01 00:00:00
TRACK 16 AUDIO
INDEX 00 03:32:72
FILE "16. Cherokee.flac" WAVE
INDEX 01 00:00:00
 
Лог проверки качества
AUDIOCHECKER v2.0 beta (build 457) - by Dester - opdester@freemail.hu
~~~~~~~~~~~~~~~~~~~~~~~~~~~~~~~~~~
-=== DO NOT EDIT THIS FILE! ===-
Path: ...\VJM 41 - Tal Farlow
01 -=- 01. Autumn Leaves.flac -=- CDDA (100%)
02 -=- 02. It's You Or No One.flac -=- CDDA (100%)
03 -=- 03. Little Girl Blue.flac -=- CDDA (100%)
04 -=- 04. Out of Nowhere.flac -=- CDDA (100%)
05 -=- 05. Ev'rything I've Got.flac -=- CDDA (100%)
06 -=- 06. Isn't It Romantic.flac -=- CDDA (99%)
07 -=- 07. Meteor.flac -=- CDDA (99%)
08 -=- 08. Lorinesque.flac -=- CDDA (100%)
09 -=- 09. The Love Nest.flac -=- CDDA (100%)
10 -=- 10. Yesterdays.flac -=- CDDA (100%)
11 -=- 11. With The Wind And The Rain In Your Hair.flac -=- CDDA (100%)
12 -=- 12. I Remember You.flac -=- CDDA (100%)
13 -=- 13. Moonlight Becomes You.flac -=- CDDA (99%)
14 -=- 14. Autumn In New York.flac -=- CDDA (99%)
15 -=- 15. Stella By Starlight.flac -=- CDDA (99%)
16 -=- 16. Cherokee.flac -=- CDDA (100%)
Summary 99,69% CDDA
21237300
18:26
576
Нет комментариев. Ваш будет первым!