Поиск

(Bop) Toots Thielemans — Verve Jazz Masters 59 — 1996, FLAC (image+.cue), lossless

Треклист:
Toots Thielemans — Verve Jazz Masters 59
Жанр: Bop
Год выпуска диска: 1996
Label: Verve
Аудио кодек: FLAC
Тип рипа: image+.cue
Битрейт аудио: lossless
Продолжительность: 73:16
Треклист:
01. Undecided (2:36)
02. Body And Soul (2:36)
03. Flirt (2:48)
04. Soldier In The Rain (3:12)
05. Hummin' (8:10)
06. Brown Ballad (4:24)
07. You're My Blues Machine (3:08)
08. Bluesette (7:02)
09. Big Bossa (4:03)
10. Tenor Madness (8:09)
11. Nocturne (3:07)
12. Vai Passar (5:14)
13. Killer Joe (4:42)
14. The Peacocks (6:35)
15. C To G Jam Blues (2:59)
16. For My Lady (4:31)
Источник:
 
Отчет ЕАС
Exact Audio Copy V0.99 prebeta 4 from 23. January 2008
Toots Thielemans / Jazz Masters 59
Used drive  : ATAPI   DVD A  DH16A6L   Adapter: 0  ID: 1
Read mode               : Secure
Utilize accurate stream : Yes
Defeat audio cache      : Yes
Make use of C2 pointers : No
Read offset correction                      : 6
Overread into Lead-In and Lead-Out          : No
Fill up missing offset samples with silence : Yes
Delete leading and trailing silent blocks   : No
Null samples used in CRC calculations       : Yes
Used interface                              : Native Win32 interface for Win NT & 2000
Used output format : Internal WAV Routines
Sample format      : 44.100 Hz; 16 Bit; Stereo
TOC of the extracted CD
     Track |   Start  |  Length  | Start sector | End sector
    ---------------------------------------------------------
        1  |  0:00.00 |  2:36.00 |         0    |    11699
        2  |  2:36.00 |  2:36.00 |     11700    |    23399
        3  |  5:12.00 |  2:48.00 |     23400    |    35999
        4  |  8:00.00 |  3:12.00 |     36000    |    50399
        5  | 11:12.00 |  8:10.00 |     50400    |    87149
        6  | 19:22.00 |  4:24.00 |     87150    |   106949
        7  | 23:46.00 |  3:07.50 |    106950    |   121024
        8  | 26:53.50 |  7:02.25 |    121025    |   152699
        9  | 33:56.00 |  4:03.00 |    152700    |   170924
       10  | 37:59.00 |  8:08.50 |    170925    |   207574
       11  | 46:07.50 |  3:07.25 |    207575    |   221624
       12  | 49:15.00 |  5:14.00 |    221625    |   245174
       13  | 54:29.00 |  4:42.00 |    245175    |   266324
       14  | 59:11.00 |  6:35.00 |    266325    |   295949
       15  | 65:46.00 |  2:59.00 |    295950    |   309374
       16  | 68:45.00 |  4:31.30 |    309375    |   329729
Range status and errors
Selected range
     Filename C:\Users\Toots Thielemans - Jazz Masters 59.wav
     Peak level 97.7 %
     Range quality 100.0 %
     Copy CRC 08303A0A
     Copy OK
No errors occurred
End of status report
Мои раздачи на трекере
20:09
781
Нет комментариев. Ваш будет первым!