Поиск

(Bop) VA — Roy Eldridge, Dizzy Gillespie, Clark Terry – The Trumpet Kings At Montreux (1975) — 1990, FLAC (tracks+.cue), lossless

(Bop) VA — Roy Eldridge, Dizzy Gillespie, Clark Terry – The Trumpet Kings At Montreux (1975) — 1990, FLAC (tracks+.cue), lossless
Треклист:
VA — The Trumpet Kings At Montreux (1975)
Жанр: Bop
Год издания диска: 1990
Издатель (лейбл): OJC/Pablo
Номер по каталогу: 00025218644525
Аудиокодек: FLAC (*.flac)
Тип рипа: tracks+.cue
Битрейт аудио: lossless
Продолжительность: 67:01
Релизер: Bezz
Наличие сканов в содержимом раздачи: да
Треклист:
01. Montreux Blues (13:25)
02. (There Is) No Greater Love (13:26)
03. Lullaby Of The Leaves (11:30)
04. On The Alamo (11:37)
05. Blues For Norman (8:00)
06. (Back Home Again In) Indiana (9:04)
Personnel:
Roy Eldridge - tp
Dizzy Gillespie - tp
Clark Terry - tp
Oscar Peterson - p
Niels-Henning Orsted Pedersen - b
Louis Bellson - d
Rec.: live at the Montreux Jazz Festival, Montreux, Switzerland, July 16, 1975.
Digitally remastered by Phil De Lancie (1990, Fantasy Studios, Berkeley, California).
 
 
Лог создания рипа
Exact Audio Copy V1.0 beta 1 from 15. November 2010
EAC extraction logfile from 13. April 2011, 22:26
Roy Eldridge, Dizzy Gillespie, Clark Terry / The Trumpet Kings At Montreux
Used drive  : LITE-ON CD-RW SOHR-5238S   Adapter: 6  ID: 3
Read mode               : Secure
Utilize accurate stream : Yes
Defeat audio cache      : Yes
Make use of C2 pointers : No
Read offset correction                      : 6
Overread into Lead-In and Lead-Out          : No
Fill up missing offset samples with silence : Yes
Delete leading and trailing silent blocks   : No
Null samples used in CRC calculations       : Yes
Used interface                              : Installed external ASPI interface
Gap handling                                : Appended to previous track
Used output format : Internal WAV Routines
Sample format      : 44.100 Hz; 16 Bit; Stereo
TOC of the extracted CD
     Track |   Start  |  Length  | Start sector | End sector
    ---------------------------------------------------------
        1  |  0:00.00 | 13:25.10 |         0    |    60384
        2  | 13:25.10 | 13:25.62 |     60385    |   120821
        3  | 26:50.72 | 11:29.48 |    120822    |   172544
        4  | 38:20.45 | 11:36.62 |    172545    |   224806
        5  | 49:57.32 |  8:00.23 |    224807    |   260829
        6  | 57:57.55 |  9:03.55 |    260830    |   301609
Track  1
     Filename F:\eac\The Trumpet Kings At Montreux\01 - Montreux Blues.wav
     Pre-gap length  0:00:02.00
     Peak level 96.8 %
     Extraction speed 7.4 X
     Track quality 100.0 %
     Test CRC B240B1B7
     Copy CRC B240B1B7
     Track not present in AccurateRip database
     Copy OK
Track  2
     Filename F:\eac\The Trumpet Kings At Montreux\02 - (There Is) No Greater Love.wav
     Peak level 97.5 %
     Extraction speed 9.2 X
     Track quality 100.0 %
     Test CRC 2DA4A743
     Copy CRC 2DA4A743
     Track not present in AccurateRip database
     Copy OK
Track  3
     Filename F:\eac\The Trumpet Kings At Montreux\03 - Lullaby Of The Leaves.wav
     Peak level 81.2 %
     Extraction speed 10.5 X
     Track quality 100.0 %
     Test CRC A8120A5C
     Copy CRC A8120A5C
     Track not present in AccurateRip database
     Copy OK
Track  4
     Filename F:\eac\The Trumpet Kings At Montreux\04 - On The Alamo.wav
     Peak level 96.3 %
     Extraction speed 9.0 X
     Track quality 100.0 %
     Test CRC D8504D61
     Copy CRC D8504D61
     Track not present in AccurateRip database
     Copy OK
Track  5
     Filename F:\eac\The Trumpet Kings At Montreux\05 - Blues For Norman.wav
     Peak level 92.9 %
     Extraction speed 7.5 X
     Track quality 100.0 %
     Test CRC 27074508
     Copy CRC 27074508
     Track not present in AccurateRip database
     Copy OK
Track  6
     Filename F:\eac\The Trumpet Kings At Montreux\06 - (Back Home Again In) Indiana.wav
     Peak level 94.7 %
     Extraction speed 8.5 X
     Track quality 100.0 %
     Test CRC A27E9483
     Copy CRC A27E9483
     Track not present in AccurateRip database
     Copy OK
None of the tracks are present in the AccurateRip database
No errors occurred
End of status report
==== Log checksum 94229C02AE9FBEA228B1C5FFC0E5E21F988589536E894D761D6F3A9B47A69254 ====
 
 
Содержание индексной карты (.CUE)
REM GENRE Jazz
REM DATE 1975
REM DISCID 560FB506
REM COMMENT "ExactAudioCopy v1.0b1"
PERFORMER "Roy Eldridge, Dizzy Gillespie, Clark Terry"
TITLE "The Trumpet Kings At Montreux"
FILE "01 - Montreux Blues.flac" WAVE
  TRACK 01 AUDIO
    TITLE "Montreux Blues"
    PERFORMER "Roy Eldridge, Dizzy Gillespie, Clark Terry"
    INDEX 01 00:00:00
FILE "02 - (There Is) No Greater Love.flac" WAVE
  TRACK 02 AUDIO
    TITLE "(There Is) No Greater Love"
    PERFORMER "Roy Eldridge, Dizzy Gillespie, Clark Terry"
    INDEX 01 00:00:00
FILE "03 - Lullaby Of The Leaves.flac" WAVE
  TRACK 03 AUDIO
    TITLE "Lullaby Of The Leaves"
    PERFORMER "Roy Eldridge, Dizzy Gillespie, Clark Terry"
    INDEX 01 00:00:00
FILE "04 - On The Alamo.flac" WAVE
  TRACK 04 AUDIO
    TITLE "On The Alamo"
    PERFORMER "Roy Eldridge, Dizzy Gillespie, Clark Terry"
    INDEX 01 00:00:00
FILE "05 - Blues For Norman.flac" WAVE
  TRACK 05 AUDIO
    TITLE "Blues For Norman"
    PERFORMER "Roy Eldridge, Dizzy Gillespie, Clark Terry"
    INDEX 01 00:00:00
FILE "06 - (Back Home Again In) Indiana.flac" WAVE
  TRACK 06 AUDIO
    TITLE "(Back Home Again In) Indiana"
    PERFORMER "Roy Eldridge, Dizzy Gillespie, Clark Terry"
    INDEX 01 00:00:00
Download available for power users only.
08:46
401
Нет комментариев. Ваш будет первым!