Поиск

(Bop, Vocal Jazz) Mose Allison - Blues Et Jazz A La Fois! - 2000, FLAC (tracks+.cue), lossless

(Bop, Vocal Jazz) Mose Allison - Blues Et Jazz A La Fois! - 2000, FLAC (tracks+.cue), lossless
Треклист:
•Mose Allison - Blues Et Jazz A La Fois!•
Жанр: Bop, Vocal Jazz
Страна-производитель диска: USA
Год издания: 2000
Издатель (лейбл): Warner Music
Номер по каталогу: 9548-39188-2
Аудиокодек: FLAC (*.flac)
Тип рипа: tracks+.cue
Битрейт аудио: lossless
Продолжительность: 01:04:58
Источник (релизер): artmuss
Наличие сканов в содержимом раздачи: да
Треклист:
01.Parchman Farm [03:20]
02.The Senenth Son [02:37]
03.Blueberry Hill [02:58]
04.Devil in the Cane Field [04:04]
05.Your Mind is on Vacation [02:37]
06.Mule [03:57]
07.Trouble in Mind [03:18]
08.Foolkiller [02:27]
09.Do Nothin' Till You Hear From Me [03:13]
10.Creek Bank [04:37]
11.Rollin' Stone [03:01]
12.Promenade [04:12]
13.Your Molecular Structure [02:11]
14.Groovin' High [05:42]
15.One of These Days [04:36]
16.Stroll [03:58]
17.Moon and Cypress [04:03]
18.I Hadn't Anyone Till You [02:34]
19.Young Man's Blues [01:24]
 
Лог создания рипа
Exact Audio Copy V1.0 beta 3 from 29. August 2011
EAC extraction logfile from 4. August 2012, 0:05
Mose Allison / Blues et jazz a la fois
Used drive  : PLEXTOR CD-R   PX-W2410A   Adapter: 2  ID: 0
Read mode               : Secure
Utilize accurate stream : Yes
Defeat audio cache      : Yes
Make use of C2 pointers : No
Read offset correction                      : 98
Overread into Lead-In and Lead-Out          : No
Fill up missing offset samples with silence : Yes
Delete leading and trailing silent blocks   : No
Null samples used in CRC calculations       : Yes
Used interface                              : Native Win32 interface for Win NT & 2000
Gap handling                                : Appended to previous track
Used output format              : User Defined Encoder
Selected bitrate                : 1024 kBit/s
Quality                         : High
Add ID3 tag                     : No
Command line compressor         : C:\Program Files\Exact Audio Copy\FLAC\FLAC.EXE
Additional command line options : -8 -V -T "ARTIST=%artist%" -T "TITLE=%title%" -T "ALBUM=%albumtitle%" -T "DATE=%year%" -T "TRACKNUMBER=%tracknr%" -T "GENRE=%genre%" -T "PERFORMER=%albuminterpret%" -T "COMPOSER=%composer%" %haslyrics%--tag-from-file=LYRICS="%lyricsfile%"%haslyrics% -T "ALBUMARTIST=%albumartist%" -T "DISCNUMBER=%cdnumber%" -T "TOTALDISCS=%totalcds%" -T "TOTALTRACKS=%numtracks%" -T "COMMENT=%comment%" %source%
TOC of the extracted CD
     Track |   Start  |  Length  | Start sector | End sector
    ---------------------------------------------------------
        1  |  0:00.00 |  3:20.30 |         0    |    15029
        2  |  3:20.30 |  2:37.30 |     15030    |    26834
        3  |  5:57.60 |  2:58.15 |     26835    |    40199
        4  |  8:56.00 |  4:04.32 |     40200    |    58531
        5  | 13:00.32 |  2:37.59 |     58532    |    70365
        6  | 15:38.16 |  3:57.00 |     70366    |    88140
        7  | 19:35.16 |  3:18.35 |     88141    |   103025
        8  | 22:53.51 |  2:27.02 |    103026    |   114052
        9  | 25:20.53 |  3:13.47 |    114053    |   128574
       10  | 28:34.25 |  4:37.70 |    128575    |   149419
       11  | 33:12.20 |  3:01.10 |    149420    |   163004
       12  | 36:13.30 |  4:12.18 |    163005    |   181922
       13  | 40:25.48 |  2:11.32 |    181923    |   191779
       14  | 42:37.05 |  5:42.43 |    191780    |   217472
       15  | 48:19.48 |  4:36.50 |    217473    |   238222
       16  | 52:56.23 |  3:58.65 |    238223    |   256137
       17  | 56:55.13 |  4:03.70 |    256138    |   274432
       18  | 60:59.08 |  2:34.48 |    274433    |   286030
       19  | 63:33.56 |  1:24.60 |    286031    |   292390
Track  1
     Filename X:\EAC\Mose Allison - Blues et jazz a la fois (Warner 2000) [FLAC]\01. parchman farm.wav
     Pre-gap length  0:00:02.00
     Peak level 89.6 %
     Extraction speed 3.6 X
     Track quality 100.0 %
     Test CRC 7346E648
     Copy CRC 7346E648
     Track not present in AccurateRip database
     Copy OK
Track  2
     Filename X:\EAC\Mose Allison - Blues et jazz a la fois (Warner 2000) [FLAC]\02. the senenth son.wav
     Peak level 98.8 %
     Extraction speed 3.4 X
     Track quality 100.0 %
     Test CRC F3756F5F
     Copy CRC F3756F5F
     Track not present in AccurateRip database
     Copy OK
Track  3
     Filename X:\EAC\Mose Allison - Blues et jazz a la fois (Warner 2000) [FLAC]\03. blueberry hill.wav
     Peak level 79.4 %
     Extraction speed 3.6 X
     Track quality 100.0 %
     Test CRC 318E67ED
     Copy CRC 318E67ED
     Track not present in AccurateRip database
     Copy OK
Track  4
     Filename X:\EAC\Mose Allison - Blues et jazz a la fois (Warner 2000) [FLAC]\04. devil in the cane field.wav
     Peak level 97.9 %
     Extraction speed 3.6 X
     Track quality 100.0 %
     Test CRC 0B7617C2
     Copy CRC 0B7617C2
     Track not present in AccurateRip database
     Copy OK
Track  5
     Filename X:\EAC\Mose Allison - Blues et jazz a la fois (Warner 2000) [FLAC]\05. your mind is on vacation.wav
     Peak level 80.3 %
     Extraction speed 3.6 X
     Track quality 100.0 %
     Test CRC E2BE2434
     Copy CRC E2BE2434
     Track not present in AccurateRip database
     Copy OK
Track  6
     Filename X:\EAC\Mose Allison - Blues et jazz a la fois (Warner 2000) [FLAC]\06. mule.wav
     Peak level 69.3 %
     Extraction speed 3.6 X
     Track quality 100.0 %
     Test CRC D39CE081
     Copy CRC D39CE081
     Track not present in AccurateRip database
     Copy OK
Track  7
     Filename X:\EAC\Mose Allison - Blues et jazz a la fois (Warner 2000) [FLAC]\07. trouble in mind.wav
     Peak level 63.9 %
     Extraction speed 3.6 X
     Track quality 100.0 %
     Test CRC A6FD2D94
     Copy CRC A6FD2D94
     Track not present in AccurateRip database
     Copy OK
Track  8
     Filename X:\EAC\Mose Allison - Blues et jazz a la fois (Warner 2000) [FLAC]\08. foolkiller.wav
     Peak level 61.8 %
     Extraction speed 3.1 X
     Track quality 99.9 %
     Test CRC E41F0BA1
     Copy CRC E41F0BA1
     Track not present in AccurateRip database
     Copy OK
Track  9
     Filename X:\EAC\Mose Allison - Blues et jazz a la fois (Warner 2000) [FLAC]\09. do nothin' till you hear from me.wav
     Peak level 97.9 %
     Extraction speed 3.6 X
     Track quality 100.0 %
     Test CRC 77F35835
     Copy CRC 77F35835
     Track not present in AccurateRip database
     Copy OK
Track 10
     Filename X:\EAC\Mose Allison - Blues et jazz a la fois (Warner 2000) [FLAC]\10. creek bank.wav
     Peak level 95.8 %
     Extraction speed 3.7 X
     Track quality 100.0 %
     Test CRC 8CFFCFA2
     Copy CRC 8CFFCFA2
     Track not present in AccurateRip database
     Copy OK
Track 11
     Filename X:\EAC\Mose Allison - Blues et jazz a la fois (Warner 2000) [FLAC]\11. rollin' stone.wav
     Peak level 69.3 %
     Extraction speed 3.7 X
     Track quality 100.0 %
     Test CRC 519BFA37
     Copy CRC 519BFA37
     Track not present in AccurateRip database
     Copy OK
Track 12
     Filename X:\EAC\Mose Allison - Blues et jazz a la fois (Warner 2000) [FLAC]\12. promenade.wav
     Peak level 97.9 %
     Extraction speed 3.7 X
     Track quality 100.0 %
     Test CRC DC27AD4F
     Copy CRC DC27AD4F
     Track not present in AccurateRip database
     Copy OK
Track 13
     Filename X:\EAC\Mose Allison - Blues et jazz a la fois (Warner 2000) [FLAC]\13. your molecular structure.wav
     Peak level 97.9 %
     Extraction speed 3.6 X
     Track quality 100.0 %
     Test CRC DCD6B6EC
     Copy CRC DCD6B6EC
     Track not present in AccurateRip database
     Copy OK
Track 14
     Filename X:\EAC\Mose Allison - Blues et jazz a la fois (Warner 2000) [FLAC]\14. groovin' high.wav
     Peak level 94.5 %
     Extraction speed 3.7 X
     Track quality 100.0 %
     Test CRC 4D9FDBD0
     Copy CRC 4D9FDBD0
     Track not present in AccurateRip database
     Copy OK
Track 15
     Filename X:\EAC\Mose Allison - Blues et jazz a la fois (Warner 2000) [FLAC]\15. one of these days.wav
     Peak level 75.4 %
     Extraction speed 3.7 X
     Track quality 100.0 %
     Test CRC 903B46EA
     Copy CRC 903B46EA
     Track not present in AccurateRip database
     Copy OK
Track 16
     Filename X:\EAC\Mose Allison - Blues et jazz a la fois (Warner 2000) [FLAC]\16. stroll.wav
     Pre-gap length  0:00:02.00
     Peak level 98.0 %
     Extraction speed 3.7 X
     Track quality 100.0 %
     Test CRC E8DACA33
     Copy CRC E8DACA33
     Track not present in AccurateRip database
     Copy OK
Track 17
     Filename X:\EAC\Mose Allison - Blues et jazz a la fois (Warner 2000) [FLAC]\17. moon and cypress.wav
     Peak level 65.4 %
     Extraction speed 3.7 X
     Track quality 100.0 %
     Test CRC A741B7C6
     Copy CRC A741B7C6
     Track not present in AccurateRip database
     Copy OK
Track 18
     Filename X:\EAC\Mose Allison - Blues et jazz a la fois (Warner 2000) [FLAC]\18. i hadn't anyone till you.wav
     Peak level 69.3 %
     Extraction speed 3.6 X
     Track quality 100.0 %
     Test CRC E6BF06E5
     Copy CRC E6BF06E5
     Track not present in AccurateRip database
     Copy OK
Track 19
     Filename X:\EAC\Mose Allison - Blues et jazz a la fois (Warner 2000) [FLAC]\19. young man's blues.wav
     Peak level 63.8 %
     Extraction speed 2.3 X
     Track quality 100.0 %
     Test CRC 69FF2198
     Copy CRC 69FF2198
     Track not present in AccurateRip database
     Copy OK
None of the tracks are present in the AccurateRip database
No errors occurred
End of status report
---- CUETools DB Plugin V2.1.3
[CTDB TOCID: V_gSU5T2PYiqwZ3yCGhleCiSV7Y-] found, Submit result: V_gSU5T2PYiqwZ3yCGhleCiSV7Y- has been confirmed
[2da36fbd] (1/1) Accurately ripped
==== Log checksum FD14FBDEF20227CCF0F9186786A77BF0B63C3258142378A3E971D50611757D63 ====
 
 
Содержание индексной карты (.CUE)
REM GENRE Jazz
REM DATE 2000
REM DISCID 180F3A13
REM COMMENT "ExactAudioCopy v1.0b3"
PERFORMER "Mose Allison"
TITLE "Blues et jazz a la fois"
FILE "01. parchman farm.wav" WAVE
  TRACK 01 AUDIO
    TITLE "parchman farm"
    PERFORMER "Mose Allison"
    INDEX 01 00:00:00
FILE "02. the senenth son.wav" WAVE
  TRACK 02 AUDIO
    TITLE "the senenth son"
    PERFORMER "Mose Allison"
    INDEX 01 00:00:00
FILE "03. blueberry hill.wav" WAVE
  TRACK 03 AUDIO
    TITLE "blueberry hill"
    PERFORMER "Mose Allison"
    INDEX 01 00:00:00
FILE "04. devil in the cane field.wav" WAVE
  TRACK 04 AUDIO
    TITLE "devil in the cane field"
    PERFORMER "Mose Allison"
    INDEX 01 00:00:00
FILE "05. your mind is on vacation.wav" WAVE
  TRACK 05 AUDIO
    TITLE "your mind is on vacation"
    PERFORMER "Mose Allison"
    INDEX 01 00:00:00
FILE "06. mule.wav" WAVE
  TRACK 06 AUDIO
    TITLE "mule"
    PERFORMER "Mose Allison"
    INDEX 01 00:00:00
FILE "07. trouble in mind.wav" WAVE
  TRACK 07 AUDIO
    TITLE "trouble in mind"
    PERFORMER "Mose Allison"
    INDEX 01 00:00:00
FILE "08. foolkiller.wav" WAVE
  TRACK 08 AUDIO
    TITLE "foolkiller"
    PERFORMER "Mose Allison"
    INDEX 01 00:00:00
FILE "09. do nothin' till you hear from me.wav" WAVE
  TRACK 09 AUDIO
    TITLE "do nothin' till you hear from me"
    PERFORMER "Mose Allison"
    INDEX 01 00:00:00
FILE "10. creek bank.wav" WAVE
  TRACK 10 AUDIO
    TITLE "creek bank"
    PERFORMER "Mose Allison"
    INDEX 01 00:00:00
FILE "11. rollin' stone.wav" WAVE
  TRACK 11 AUDIO
    TITLE "rollin' stone"
    PERFORMER "Mose Allison"
    INDEX 01 00:00:00
FILE "12. promenade.wav" WAVE
  TRACK 12 AUDIO
    TITLE "promenade"
    PERFORMER "Mose Allison"
    INDEX 01 00:00:00
FILE "13. your molecular structure.wav" WAVE
  TRACK 13 AUDIO
    TITLE "your molecular structure"
    PERFORMER "Mose Allison"
    INDEX 01 00:00:00
FILE "14. groovin' high.wav" WAVE
  TRACK 14 AUDIO
    TITLE "groovin' high"
    PERFORMER "Mose Allison"
    INDEX 01 00:00:00
FILE "15. one of these days.wav" WAVE
  TRACK 15 AUDIO
    TITLE "one of these days"
    PERFORMER "Mose Allison"
    INDEX 01 00:00:00
  TRACK 16 AUDIO
    TITLE "stroll"
    PERFORMER "Mose Allison"
    INDEX 00 04:34:50
FILE "16. stroll.wav" WAVE
    INDEX 01 00:00:00
FILE "17. moon and cypress.wav" WAVE
  TRACK 17 AUDIO
    TITLE "moon and cypress"
    PERFORMER "Mose Allison"
    INDEX 01 00:00:00
FILE "18. i hadn't anyone till you.wav" WAVE
  TRACK 18 AUDIO
    TITLE "i hadn't anyone till you"
    PERFORMER "Mose Allison"
    INDEX 01 00:00:00
FILE "19. young man's blues.wav" WAVE
  TRACK 19 AUDIO
    TITLE "young man's blues"
    PERFORMER "Mose Allison"
    INDEX 01 00:00:00
05:05
558
Нет комментариев. Ваш будет первым!