Поиск

(Chamber, Accordeon, Tango) Richard Galliano - Paris Concert (Live At The Theatre Du Chatelet) - 2009, FLAC (tracks+.cue), lossless

Треклист:
Richard Galliano - Paris Concert (Live At The Theatre Du Chatelet) Жанр: Chamber, Accordeon, Tango
Дата записи: 2009
Дата выпуска: 2009
Производитель диска: CAMJ 7823
Аудио кодек: FLAC
Тип рипа: tracks+.cue
Битрейт: lossless
Обложки: 300 dpi, jpg
Продолжительность: 42:28
Источник: S...
Треклист:
01. Chat Pitre (3:35)
02. Gnossienne Nr 1 (3:25)
03. Gnossienne Nr 2 (1:49)
04. Sertao (4:57)
05. Sheng (1:14)
06. Bagatelle (1:29)
07. La Javanaise (3:30)
08. Caruso (3:12)
09. New York Tango (7:03)
10. 'Round Midnight (4:12)
11. Oblivion (4:21)
12. Aria (3:43)
Состав:
Richard Galliano - Accordion
Информация об альбоме:

Recorded in Paris on 9 March 2009 at Foyer du Theatre du Chatelet

Аудио сэмплы:
 
Отчёт ЕАС
Exact Audio Copy V0.99 prebeta 5 from 4. May 2009
EAC extraction logfile from 24. October 2009, 17:47
Richard Galliano / Paris Concert (Live At The Theatre Du Chatelet)
Used drive : PLEXTOR CD-R PREMIUM2 Adapter: 1 ID: 1
Read mode : Secure
Utilize accurate stream : Yes
Defeat audio cache : Yes
Make use of C2 pointers : No
Read offset correction : 30
Overread into Lead-In and Lead-Out : No
Fill up missing offset samples with silence : Yes
Delete leading and trailing silent blocks : No
Null samples used in CRC calculations : Yes
Used interface : Installed external ASPI interface
Gap handling : Appended to previous track
Used output format : User Defined Encoder
Selected bitrate : 32 kBit/s
Quality : High
Add ID3 tag : No
Command line compressor : C:\Programmi\FLAC\flac.exe
Additional command line options : -8 -V -T "ARTIST=%a" -T "TITLE=%t" -T "ALBUM=%g" -T "DATE=%y" -T "TRACKNUMBER=%n" -T "GENRE=%m" -T "COMMENT=EAC FLAC -8" %s
TOC of the extracted CD
Track | Start | Length | Start sector | End sector
---------------------------------------------------------
1 | 0:00.00 | 3:35.26 | 0 | 16150
2 | 3:35.26 | 3:24.61 | 16151 | 31511
3 | 7:00.12 | 1:49.22 | 31512 | 39708
4 | 8:49.34 | 4:56.41 | 39709 | 61949
5 | 13:46.00 | 1:13.44 | 61950 | 67468
6 | 14:59.44 | 1:29.13 | 67469 | 74156
7 | 16:28.57 | 3:30.02 | 74157 | 89908
8 | 19:58.59 | 3:11.66 | 89909 | 104299
9 | 23:10.50 | 7:02.60 | 104300 | 136009
10 | 30:13.35 | 4:12.05 | 136010 | 154914
11 | 34:25.40 | 4:20.62 | 154915 | 174476
12 | 38:46.27 | 3:42.39 | 174477 | 191165
Track 1
Filename D:\My Rip\01 - Chat Pitre.wav
Pre-gap length 0:00:02.00
Peak level 85.3 %
Track quality 100.0 %
Test CRC E4B6132E
Copy CRC E4B6132E
Track not present in AccurateRip database
Copy OK
Track 2
Filename D:\My Rip\02 - Gnossienne Nr 1.wav
Peak level 57.7 %
Track quality 100.0 %
Test CRC 2860993D
Copy CRC 2860993D
Track not present in AccurateRip database
Copy OK
Track 3
Filename D:\My Rip\03 - Gnossienne Nr 2.wav
Peak level 71.4 %
Track quality 100.0 %
Test CRC EB51CF55
Copy CRC EB51CF55
Track not present in AccurateRip database
Copy OK
Track 4
Filename D:\My Rip\04 - Sertao.wav
Peak level 73.9 %
Track quality 99.9 %
Test CRC DDAE93A4
Copy CRC DDAE93A4
Track not present in AccurateRip database
Copy OK
Track 5
Filename D:\My Rip\05 - Sheng.wav
Peak level 64.6 %
Track quality 100.0 %
Test CRC C7192C02
Copy CRC C7192C02
Track not present in AccurateRip database
Copy OK
Track 6
Filename D:\My Rip\06 - Bagatelle.wav
Peak level 76.6 %
Track quality 100.0 %
Test CRC 8D2BF628
Copy CRC 8D2BF628
Track not present in AccurateRip database
Copy OK
Track 7
Filename D:\My Rip\07 - La Javanaise.wav
Peak level 88.4 %
Track quality 100.0 %
Test CRC 3C062888
Copy CRC 3C062888
Track not present in AccurateRip database
Copy OK
Track 8
Filename D:\My Rip\08 - Caruso.wav
Peak level 57.9 %
Track quality 100.0 %
Test CRC 91D0881E
Copy CRC 91D0881E
Track not present in AccurateRip database
Copy OK
Track 9
Filename D:\My Rip\09 - New York Tango.wav
Peak level 94.9 %
Track quality 100.0 %
Test CRC E6DF09D2
Copy CRC E6DF09D2
Track not present in AccurateRip database
Copy OK
Track 10
Filename D:\My Rip\10 - 'Round Midnight.wav
Peak level 76.5 %
Track quality 100.0 %
Test CRC 667644E9
Copy CRC 667644E9
Track not present in AccurateRip database
Copy OK
Track 11
Filename D:\My Rip\11 - Oblivion.wav
Peak level 86.3 %
Track quality 100.0 %
Test CRC FC69062E
Copy CRC FC69062E
Track not present in AccurateRip database
Copy OK
Track 12
Filename D:\My Rip\12 - Aria.wav
Peak level 92.2 %
Track quality 99.9 %
Test CRC 59197DCA
Copy CRC 59197DCA
Track not present in AccurateRip database
Copy OK
None of the tracks are present in the AccurateRip database
No errors occurred
End of status report
 
CUE
REM GENRE Tango
REM DATE 2009
REM DISCID 8A09F40C
REM COMMENT "ExactAudioCopy v0.99pb5"
PERFORMER "Richard Galliano"
TITLE "Paris Concert (Live At The Theatre Du Chatelet)"
FILE "01 - Chat Pitre.wav" WAVE
TRACK 01 AUDIO
TITLE "Chat Pitre"
PERFORMER "Richard Galliano"
FLAGS DCP
INDEX 01 00:00:00
FILE "02 - Gnossienne Nr 1.wav" WAVE
TRACK 02 AUDIO
TITLE "Gnossienne Nr 1"
PERFORMER "Richard Galliano"
FLAGS DCP
INDEX 01 00:00:00
FILE "03 - Gnossienne Nr 2.wav" WAVE
TRACK 03 AUDIO
TITLE "Gnossienne Nr 2"
PERFORMER "Richard Galliano"
FLAGS DCP
INDEX 01 00:00:00
FILE "04 - Sertao.wav" WAVE
TRACK 04 AUDIO
TITLE "Sertao"
PERFORMER "Richard Galliano"
FLAGS DCP
INDEX 01 00:00:00
FILE "05 - Sheng.wav" WAVE
TRACK 05 AUDIO
TITLE "Sheng"
PERFORMER "Richard Galliano"
FLAGS DCP
INDEX 01 00:00:00
FILE "06 - Bagatelle.wav" WAVE
TRACK 06 AUDIO
TITLE "Bagatelle"
PERFORMER "Richard Galliano"
FLAGS DCP
INDEX 01 00:00:00
FILE "07 - La Javanaise.wav" WAVE
TRACK 07 AUDIO
TITLE "La Javanaise"
PERFORMER "Richard Galliano"
FLAGS DCP
INDEX 01 00:00:00
FILE "08 - Caruso.wav" WAVE
TRACK 08 AUDIO
TITLE "Caruso"
PERFORMER "Richard Galliano"
FLAGS DCP
INDEX 01 00:00:00
FILE "09 - New York Tango.wav" WAVE
TRACK 09 AUDIO
TITLE "New York Tango"
PERFORMER "Richard Galliano"
FLAGS DCP
INDEX 01 00:00:00
FILE "10 - 'Round Midnight.wav" WAVE
TRACK 10 AUDIO
TITLE "'Round Midnight"
PERFORMER "Richard Galliano"
FLAGS DCP
INDEX 01 00:00:00
FILE "11 - Oblivion.wav" WAVE
TRACK 11 AUDIO
TITLE "Oblivion"
PERFORMER "Richard Galliano"
FLAGS DCP
INDEX 01 00:00:00
FILE "12 - Aria.wav" WAVE
TRACK 12 AUDIO
TITLE "Aria"
PERFORMER "Richard Galliano"
FLAGS DCP
INDEX 01 00:00:00
Я всегда могу вернуться на раздачу, достаточно написать мне ЛС.
По всем вопросам пишите личное сообщение пользователю M0p94ok.
08:37
467
Нет комментариев. Ваш будет первым!