Поиск

(Chamber Jazz, Post Bop, Accordion) [CD] Ron Carter and Richard Galliano - Panamanhattan - 1991, FLAC (tracks+.cue), lossless

(Chamber Jazz, Post Bop, Accordion) [CD] Ron Carter and Richard Galliano - Panamanhattan - 1991, FLAC (tracks+.cue), lossless
Треклист:
Ron Carter and Richard Galliano / Panamanhattan
Жанр: Chamber Jazz, Post Bop
Носитель: CD
Страна-производитель диска: France
Год издания: 1991
Издатель (лейбл): Dreyfus
Номер по каталогу: FDM 36514.2
Страна: USA/ France
Аудиокодек: FLAC (*.flac)
Тип рипа: tracks+.cue
Битрейт аудио: lossless
Продолжительность: 00:50:38
Источник (релизер): duppyb
Наличие сканов в содержимом раздачи: да
Треклист:
1 Summer In Central Park
2 Spleen
3 Doom
4 Allée Des Brouillards
5 A Small Ballad
6 Portrait Of Jennie
7 Ballade Pour Marion
8 Little Waltz
9 Des Voiliers
Recorded live to digital two tracks at Fnac Montparnasse, Paris, on July 23,1990.
 
Лог создания рипа
Exact Audio Copy V1.0 beta 3 from 29. August 2011
EAC extraction logfile from 12. December 2013, 21:46
Ron Carter & Richard Galliano / Panamanhattan
Used drive : HL-DT-ST DVD+-RW Adapter: 0 ID: 0
Read mode : Secure
Utilize accurate stream : Yes
Defeat audio cache : Yes
Make use of C2 pointers : No
Read offset correction : 102
Overread into Lead-In and Lead-Out : No
Fill up missing offset samples with silence : Yes
Delete leading and trailing silent blocks : No
Null samples used in CRC calculations : Yes
Used interface : Native Win32 interface for Win NT & 2000
Gap handling : Appended to previous track
Used output format : User Defined Encoder
Selected bitrate : 128 kBit/s
Quality : High
Add ID3 tag : No
Command line compressor : C:\Program Files (x86)\Exact Audio Copy\Flac\flac.exe
Additional command line options : -V -8 -T "Genre=%genre%" -T "Artist=%artist%" -T "Title=%title%" -T "Album=%albumtitle%" -T "Date=%year%" -T "Tracknumber=%tracknr%" -T "Comment=%comment%" %source%
TOC of the extracted CD
Track | Start | Length | Start sector | End sector
---------------------------------------------------------
1 | 0:00.33 | 5:43.30 | 33 | 25787
2 | 5:43.63 | 7:07.22 | 25788 | 57834
3 | 12:51.10 | 4:50.38 | 57835 | 79622
4 | 17:41.48 | 3:36.30 | 79623 | 95852
5 | 21:18.03 | 5:42.47 | 95853 | 121549
6 | 27:00.50 | 7:36.38 | 121550 | 155787
7 | 34:37.13 | 4:24.47 | 155788 | 175634
8 | 39:01.60 | 7:26.58 | 175635 | 209142
9 | 46:28.43 | 4:09.50 | 209143 | 227867
Track 1
Filename E:\Ron Carter & Richard Galliano - Panamanhattan (1991)\01 Summer In Central Park.wav
Pre-gap length 0:00:02.33
Peak level 99.8 %
Extraction speed 1.5 X
Track quality 100.0 %
Test CRC 47B39F16
Copy CRC 47B39F16
Accurately ripped (confidence 3) [B4394B26] (AR v2)
Copy OK
Track 2
Filename E:\Ron Carter & Richard Galliano - Panamanhattan (1991)\02 Spleen.wav
Peak level 100.0 %
Extraction speed 1.6 X
Track quality 99.9 %
Test CRC E61DCCF7
Copy CRC E61DCCF7
Accurately ripped (confidence 3) [0FA3E19F] (AR v2)
Copy OK
Track 3
Filename E:\Ron Carter & Richard Galliano - Panamanhattan (1991)\03 Doom.wav
Peak level 99.8 %
Extraction speed 1.7 X
Track quality 99.9 %
Test CRC D39FAF46
Copy CRC D39FAF46
Accurately ripped (confidence 3) [7AB85280] (AR v2)
Copy OK
Track 4
Filename E:\Ron Carter & Richard Galliano - Panamanhattan (1991)\04 Allee des Brouillards.wav
Peak level 99.9 %
Extraction speed 1.9 X
Track quality 100.0 %
Test CRC F20657C2
Copy CRC F20657C2
Accurately ripped (confidence 3) [45A84BAE] (AR v2)
Copy OK
Track 5
Filename E:\Ron Carter & Richard Galliano - Panamanhattan (1991)\05 A Small Ballad.wav
Peak level 99.8 %
Extraction speed 2.0 X
Track quality 99.9 %
Test CRC 508009C1
Copy CRC 508009C1
Accurately ripped (confidence 3) [E658FBDD] (AR v2)
Copy OK
Track 6
Filename E:\Ron Carter & Richard Galliano - Panamanhattan (1991)\06 Portrait Of Jennie.wav
Peak level 100.0 %
Extraction speed 2.2 X
Track quality 99.9 %
Test CRC 6007B6E2
Copy CRC 6007B6E2
Accurately ripped (confidence 3) [E45B6AC1] (AR v2)
Copy OK
Track 7
Filename E:\Ron Carter & Richard Galliano - Panamanhattan (1991)\07 Ballade Pour Marion.wav
Peak level 100.0 %
Extraction speed 2.2 X
Track quality 99.9 %
Test CRC 8142C57A
Copy CRC 8142C57A
Accurately ripped (confidence 3) [E86B2790] (AR v2)
Copy OK
Track 8
Filename E:\Ron Carter & Richard Galliano - Panamanhattan (1991)\08 Little Waltz.wav
Pre-gap length 0:00:04.43
Peak level 100.0 %
Extraction speed 2.7 X
Track quality 100.0 %
Test CRC 7FC936C3
Copy CRC 7FC936C3
Accurately ripped (confidence 3) [63FA0F91] (AR v2)
Copy OK
Track 9
Filename E:\Ron Carter & Richard Galliano - Panamanhattan (1991)\09 Des Voliers.wav
Pre-gap length 0:00:00.01
Peak level 100.0 %
Extraction speed 2.4 X
Track quality 99.9 %
Test CRC 502B7766
Copy CRC 502B7766
Accurately ripped (confidence 3) [AD64A979] (AR v2)
Copy OK
All tracks accurately ripped
No errors occurred
End of status report
==== Log checksum AADA899AAB9C5B658ED7457BF09D3460264C1D2BD6BB346EC334CF1CD4999052 ====
 
Содержание индексной карты (.CUE)
REM GENRE Jazz
REM DATE 1991
REM DISCID 6F0BDE09
REM COMMENT "ExactAudioCopy v1.0b3"
PERFORMER "Ron Carter & Richard Galliano"
TITLE "Panamanhattan"
FILE "01 Summer In Central Park.wav" WAVE
TRACK 01 AUDIO
TITLE "Summer In Central Park"
PERFORMER "Ron Carter & Richard Galliano"
PREGAP 00:00:33
INDEX 01 00:00:00
FILE "02 Spleen.wav" WAVE
TRACK 02 AUDIO
TITLE "Spleen"
PERFORMER "Ron Carter & Richard Galliano"
INDEX 01 00:00:00
FILE "03 Doom.wav" WAVE
TRACK 03 AUDIO
TITLE "Doom"
PERFORMER "Ron Carter & Richard Galliano"
INDEX 01 00:00:00
FILE "04 Allee des Brouillards.wav" WAVE
TRACK 04 AUDIO
TITLE "Allee des Brouillards"
PERFORMER "Ron Carter & Richard Galliano"
INDEX 01 00:00:00
FILE "05 A Small Ballad.wav" WAVE
TRACK 05 AUDIO
TITLE "A Small Ballad"
PERFORMER "Ron Carter & Richard Galliano"
INDEX 01 00:00:00
FILE "06 Portrait Of Jennie.wav" WAVE
TRACK 06 AUDIO
TITLE "Portrait Of Jennie"
PERFORMER "Ron Carter & Richard Galliano"
INDEX 01 00:00:00
FILE "07 Ballade Pour Marion.wav" WAVE
TRACK 07 AUDIO
TITLE "Ballade Pour Marion"
PERFORMER "Ron Carter & Richard Galliano"
INDEX 01 00:00:00
TRACK 08 AUDIO
TITLE "Little Waltz"
PERFORMER "Ron Carter & Richard Galliano"
INDEX 00 04:20:04
FILE "08 Little Waltz.wav" WAVE
INDEX 01 00:00:00
TRACK 09 AUDIO
TITLE "Des Voliers"
PERFORMER "Ron Carter & Richard Galliano"
INDEX 00 07:26:57
FILE "09 Des Voliers.wav" WAVE
INDEX 01 00:00:00
 
Test gaps on silence


 
Об альбоме (сборнике)
A series of duets with Ron Carter and French accordionist Richard Galliano. Not a common jazz instrument, the free-reed sound of the accordion on this recording is both subtle and lovely. Tempos range from ballads to medium, but tend to be on the slow side. Not breakthrough jazz, these duets (recorded live, in concert) are refreshing and what all good music should be, just good listening.
 
Состав
Richard Galliano Accordéon
Ron Carter Contrebasse
По всем вопросам пишите личное сообщение пользователю M0p94ok.
08:59
339
Нет комментариев. Ваш будет первым!