Поиск

(Chamber Jazz, Tango) Richard Galliano - Tango Forever Live - 2004, FLAC (image+.cue), lossless

(Chamber Jazz, Tango) Richard Galliano - Tango Forever Live - 2004, FLAC (image+.cue), lossless
Треклист:
(Button Accordion,Instrumental) Richard Galliano - Tango Forever Live,2004 (Poland)
Жанр: Button Accordion,Instrumental
Год выпуска диска: 2004
Производитель диска: Польша
Аудио кодек: FLAC
Тип рипа: image+.cue
Битрейт аудио: lossless
Продолжительность: 58 минут 9 секунд
Трэклист:
1 Libertango (Piazzolla)
2 Oblivion (Piazzolla)
3 Fuga Y Misterio (Piazzolla)
4 Milonga En Ay Menor (Piazzolla)
5 Buenos Aires Hora O (Piazzolla)
Opale Concerto (Galliano)
6 Part 1
7 Part 2
8 Part 3
9 Oblivion Bis (Piazzolla)
 
Отчёт EAC:
[pre]Exact Audio Copy V0.99 prebeta 5 from 4. May 2009
EAC extraction logfile from 25. May 2010, 13:42
Unknown Artist / Unknown Title
Used drive : Optiarc DVD RW AD-7173A Adapter: 0 ID: 0
Read mode : Secure
Utilize accurate stream : Yes
Defeat audio cache : Yes
Make use of C2 pointers : No
Read offset correction : 48
Overread into Lead-In and Lead-Out : No
Fill up missing offset samples with silence : Yes
Delete leading and trailing silent blocks : No
Null samples used in CRC calculations : Yes
Used interface : Native Win32 interface for Win NT & 2000
Used output format : Internal WAV Routines
Sample format : 44.100 Hz; 16 Bit; Stereo
TOC of the extracted CD
Track | Start | Length | Start sector | End sector
---------------------------------------------------------
1 | 0:00.00 | 6:46.44 | 0 | 30493
2 | 6:46.44 | 7:16.70 | 30494 | 63263
3 | 14:03.39 | 5:41.57 | 63264 | 88895
4 | 19:45.21 | 5:47.09 | 88896 | 114929
5 | 25:32.30 | 6:57.65 | 114930 | 146269
6 | 32:30.20 | 6:26.16 | 146270 | 175235
7 | 38:56.36 | 4:55.04 | 175236 | 197364
8 | 43:51.40 | 6:42.44 | 197365 | 227558
9 | 50:34.09 | 7:35.36 | 227559 | 261719
Range status and errors
Selected range
Filename C:\Program Files\FairStars Audio Converter Pro\Unknown Artist - Unknown Title.wav
Peak level 94.7 %
Range quality 100.0 %
Test CRC 30203801
Copy CRC 30203801
Copy OK
No errors occurred
End of status report[pre]
 
CUE - файл:
[pre]REM GENRE Instrumental
REM DATE 2004
REM DISCID 780DA109
REM COMMENT "ExactAudioCopy v0.99pb4"
PERFORMER "Richard Galliano"
TITLE "Tango Forever Live"
FILE "Richard Galliano - Tango Forever Live.flac" WAVE
TRACK 01 AUDIO
TITLE "Libertango (Piazzolla)"
PERFORMER "Richard Galliano"
INDEX 01 00:00:00
TRACK 02 AUDIO
TITLE "Oblivion (Piazzolla)"
PERFORMER "Richard Galliano"
INDEX 01 06:46:44
TRACK 03 AUDIO
TITLE "Fuga Y Misterio (Piazzolla)"
PERFORMER "Richard Galliano"
INDEX 01 14:03:39
TRACK 04 AUDIO
TITLE "Milonga En Ay Menor (Piazzolla)"
PERFORMER "Richard Galliano"
INDEX 01 19:45:21
TRACK 05 AUDIO
TITLE "Buenos Aires Hora O (Piazzolla)"
PERFORMER "Richard Galliano"
INDEX 01 25:32:30
TRACK 06 AUDIO
TITLE "Opale Concerto (Galliano) part 1"
PERFORMER "Richard Galliano"
INDEX 01 32:30:20
TRACK 07 AUDIO
TITLE "Opale Concerto (Galliano) part 2"
PERFORMER "Richard Galliano"
INDEX 01 38:56:36
TRACK 08 AUDIO
TITLE "Opale Concerto (Galliano) part 3"
PERFORMER "Richard Galliano"
INDEX 01 43:51:40
TRACK 09 AUDIO
TITLE "Oblivion Bis (Piazzolla)"
PERFORMER "Richard Galliano"
INDEX 01 50:34:09[pre]
Рип выполнен со своего диска.
 
Доп.информация
[pre]Richard Galliano Accordéon, Accordina
Panstowa Orkiestra Kameralna
w Slupsku Sinfonia Baltica
Bohdan Jarmolowicz Dyrygent, Aranzacje.
Wieslaw Przadka Bandoneon.
Tomasz Tomaszewski Shrzypce.
Filip Wojcechowski Fortepian.[pre]
По всем вопросам пишите личное сообщение пользователю M0p94ok.
15:04
370
Нет комментариев. Ваш будет первым!