Поиск

(Contemporary Jazz,Classical) The Randy Waldman Trio - Wigged Out/ feat.Randy Waldman, John Patitucci, Vinnie Colaiuta/ - 1998, APE (image+.cue), lossless

The Randy Waldman Trio- Wigged Out/ feat.Randy Waldman, John Patitucci, Vinnie Colaiuta/
Жанр: Contemporary Jazz,Classical
Год выпуска диска: 1998
Производитель диска: Russia
Аудио кодек: APE
Тип рипа: image+.cue
Битрейт аудио: lossless
Продолжительность: 00:55:13
Трэклист:
1.Peter and the wolf
2.Minuet in g
3.Dance of the sugar plum fairies
4.Flight of the bumble bee
5.Prelude in c#m
6.Waltz of the flowers/intro
7.Ride of the valkyries
8.Jesu,joi to mans desiring
9.Bethoven's 5th symphony
10.Les sylphides
Доп. информация: Trio:
Randy Waldman-piano
Vinnie Colaiuta-drums
John Patitucci-bass
Guest Soloists:
Arturo Sandoval
Michael Brecker
Bob Berg
Freddie Hubbard
Walt Fowler
Michael O'Neil
Рип из личного архива.
 
Отчёт EAC
Exact Audio Copy V0.99 prebeta 4 from 23. January 2008
Отчёт EAC об извлечении, выполненном 23. июня 2010, 1:48
Randy Waldman, John Patitucci, Vinnie Colaiuta / Wigged Out
Дисковод: _NEC DVD_RW ND-2510A Adapter: 1 ID: 0
Режим чтения : Достоверность
Использование точного потока : Да
Отключение кэша аудио : Да
Использование указателей C2 : Нет
Коррекция смещения при чтении : 48
Способность читать области Lead-in и Lead-out : Нет
Заполнение пропущенных сэмплов тишиной : Да
Удаление блоков с тишиной в начале и конце : Нет
При вычислениях CRC использовались нулевые сэмплы : Да
Интерфейс : Установленный внешний ASPI-интерфейс
Выходной формат : Внутренние WAV-операции
Формат сэмплов : 44.100 Гц; 16 бит; стерео
TOC извлечённого CD
Трек | Старт | Длительность | Начальный сектор | Конечный сектор
---------------------------------------------------------------------
1 | 0:00.00 | 6:30.69 | 0 | 29318
2 | 6:30.69 | 3:55.55 | 29319 | 46998
3 | 10:26.49 | 4:26.22 | 46999 | 66970
4 | 14:52.71 | 5:29.70 | 66971 | 91715
5 | 20:22.66 | 4:30.69 | 91716 | 112034
6 | 24:53.60 | 6:05.69 | 112035 | 139478
7 | 30:59.54 | 8:21.01 | 139479 | 177054
8 | 39:20.55 | 4:40.50 | 177055 | 198104
9 | 44:01.30 | 5:38.41 | 198105 | 223495
10 | 49:39.71 | 5:33.21 | 223496 | 248491
Характеристики диапазона извлечения и сообщения об ошибках
Выбранный диапазон
Имя файла E:\ПРОЕКТ\The Randy Waldman Trio-Wigged Out 1998\Randy Waldman, John Patitucci, Vinnie Colaiuta - Wigged Out.wav
Пиковый уровень 98.8 %
Качество диапазона 100.0 %
CRC теста B3D7F86C
CRC копии B3D7F86C
Копирование... OK
Ошибок не произошло
AccurateRip: сводка
Трек 1 точность не определена (достоверность 3) [88B4B16A], AccurateRip вернул [D1000D90]
Трек 2 точность не определена (достоверность 3) [68B3380B], AccurateRip вернул [7A6D1FC5]
Трек 3 точность не определена (достоверность 3) [18D77430], AccurateRip вернул [00440F22]
Трек 4 точность не определена (достоверность 3) [9FEAA6A6], AccurateRip вернул [763D833A]
Трек 5 точность не определена (достоверность 3) [3FC0ED16], AccurateRip вернул [6E678A9A]
Трек 6 точность не определена (достоверность 3) [FF909DDB], AccurateRip вернул [340E225D]
Трек 7 точность не определена (достоверность 3) [CB36B64D], AccurateRip вернул [70100D17]
Трек 8 точность не определена (достоверность 3) [E38C3CDD], AccurateRip вернул [58C403F3]
Трек 9 точность не определена (достоверность 3) [89824071], AccurateRip вернул [42AFFA45]
Трек 10 точность не определена (достоверность 3) [62B9F1A2], AccurateRip вернул [B4F72636]
Ни один трек не прошёл проверки на точность
В вашей базе может быть иной вариант штамповки диска
Конец отчёта
Скачивание доступно после регистрации!!
Приватный:
Нет (DHT включён)
Размер:
342.63 Мб (359,271,579 байт) » файлов: 7
Участники:
0 раздают, 0 качают (0 участников всего)
Внешние участники:
3 раздают, 1 качают (4 участников всего) [ Обновить ]
13:35
670
Нет комментариев. Ваш будет первым!