Поиск

(Contemporary Jazz, Crossover Jazz, Post-Bop) [CD] Jarek Smietana & Gary Bartz - African Lake - 2000, FLAC (tracks+.cue), lossless

(Contemporary Jazz, Crossover Jazz, Post-Bop) [CD] Jarek Smietana & Gary Bartz - African Lake - 2000, FLAC (tracks+.cue), lossless
Jarek Smietana & Gary Bartz / African Lake
Жанр: Contemporary Jazz, Post-Bop
Носитель: CD
Страна-производитель диска: Poland
Год издания: 2000
Издатель (лейбл): Starling
Номер по каталогу: CD 475
Страна: Poland/ USA
Аудиокодек: FLAC (*.flac)
Тип рипа: tracks+.cue
Битрейт аудио: lossless
Продолжительность: 01:04:20
Источник (релизер): nowakson
Наличие сканов в содержимом раздачи: нет
Треклист:
1 Mr. Soul (Dedicated To G. Bartz) (J. Śmietana) 7:07
2 African Lake (J. Śmietana) 8:44
3 Logic Animal (J. Śmietana) 5:34
4 Ask Me Now (T. Monk) 7:12
5 El Cerritto (J. Śmietana) 6:19
6 Big Bad Wolf (G. Bartz) 5:29
7 Jasmin Lady (Z. Namysłowski) 7:31
8 African Dream (J. Śmietana) 8:55
9 Mosquito (J. Śmietana) 7:30
 
Лог создания рипа
X Lossless Decoder version 20121027 (142.1)
XLD extraction logfile from 2012-11-15 17:24:47 +0100
Jarek Smietana, Gary Bartz / African Lake
Used drive : MATSHITA DVD-R   UJ-868 (revision KB19)
Ripper mode             : XLD Secure Ripper
Disable audio cache     : OK for the drive with a cache less than 1375KiB
Make use of C2 pointers : NO
Read offset correction  : 102
Max retry count         : 100
Gap status              : Analyzed, Appended (except HTOA)
TOC of the extracted CD
     Track |   Start  |  Length  | Start sector | End sector
    ---------------------------------------------------------
        1  | 00:00:00 | 07:09:41 |         0    |    32215
        2  | 07:09:41 | 08:46:12 |     32216    |    71677
        3  | 15:55:53 | 05:36:03 |     71678    |    96880
        4  | 21:31:56 | 07:13:64 |     96881    |   129419
        5  | 28:45:45 | 06:41:39 |    129420    |   159533
        6  | 35:27:09 | 05:31:33 |    159534    |   184391
        7  | 40:58:42 | 07:33:29 |    184392    |   218395
        8  | 48:31:71 | 08:56:68 |    218396    |   258663
        9  | 57:28:64 | 06:51:39 |    258664    |   289527
       10  | 66:52:28 | 00:08:72 |    300928    |   301599
AccurateRip Summary (DiscID: 00162aed-00a28dff-7d0fb50a)
    Track 01 : Not Found
    Track 02 : Not Found
    Track 03 : Not Found
    Track 04 : Not Found
    Track 05 : Not Found
    Track 06 : Not Found
    Track 07 : Not Found
    Track 08 : Not Found
    Track 09 : Not Found
        ->0 track accurately ripped, 9 tracks not found
All Tracks
    Album gain               : -6.15 dB
    Peak                     : 0.993622
    Statistics
        Read error                           : 0
        Jitter error (maybe fixed)           : 0
        Retry sector count                   : 0
        Damaged sector count                 : 0
Track 01
    Filename : /Users/mnowak/Music/rip/Jarek Smietana, Gary Bartz - African Lake (2000) [FLAC]/01 Mr. Soul (dedicated to G. Bartz).flac
    Pre-gap length : 00:02:00
    Track gain               : -5.98 dB
    Peak                     : 0.988403
    CRC32 hash (test run)    : A62D82E1
    CRC32 hash               : A62D82E1
    CRC32 hash (skip zero)   : DCF5E2ED
    AccurateRip v1 signature : 1C82C55C
    AccurateRip v2 signature : A9209639
        ->Track not present in AccurateRip database.
    Statistics
        Read error                           : 0
        Jitter error (maybe fixed)           : 0
        Retry sector count                   : 0
        Damaged sector count                 : 0
Track 02
    Filename : /Users/mnowak/Music/rip/Jarek Smietana, Gary Bartz - African Lake (2000) [FLAC]/02 African Lake.flac
    Pre-gap length : 00:02:02
    Track gain               : -5.76 dB
    Peak                     : 0.988464
    CRC32 hash (test run)    : 5DC82EB8
    CRC32 hash               : 5DC82EB8
    CRC32 hash (skip zero)   : FE8FD44B
    AccurateRip v1 signature : 064F51B3
    AccurateRip v2 signature : 7D1E69E3
        ->Track not present in AccurateRip database.
    Statistics
        Read error                           : 0
        Jitter error (maybe fixed)           : 0
        Retry sector count                   : 0
        Damaged sector count                 : 0
Track 03
    Filename : /Users/mnowak/Music/rip/Jarek Smietana, Gary Bartz - African Lake (2000) [FLAC]/03 Logic Animal.flac
    Pre-gap length : 00:02:02
    Track gain               : -5.35 dB
    Peak                     : 0.988464
    CRC32 hash (test run)    : D031EB04
    CRC32 hash               : D031EB04
    CRC32 hash (skip zero)   : F4BA0187
    AccurateRip v1 signature : 5F2B86D1
    AccurateRip v2 signature : 28961688
        ->Track not present in AccurateRip database.
    Statistics
        Read error                           : 0
        Jitter error (maybe fixed)           : 0
        Retry sector count                   : 0
        Damaged sector count                 : 0
Track 04
    Filename : /Users/mnowak/Music/rip/Jarek Smietana, Gary Bartz - African Lake (2000) [FLAC]/04 Ask Me Now.flac
    Pre-gap length : 00:02:02
    Track gain               : -4.12 dB
    Peak                     : 0.741211
    CRC32 hash (test run)    : 61AFC398
    CRC32 hash               : 61AFC398
    CRC32 hash (skip zero)   : 2E39FC76
    AccurateRip v1 signature : 87619517
    AccurateRip v2 signature : 3B056767
        ->Track not present in AccurateRip database.
    Statistics
        Read error                           : 0
        Jitter error (maybe fixed)           : 0
        Retry sector count                   : 0
        Damaged sector count                 : 0
Track 05
    Filename : /Users/mnowak/Music/rip/Jarek Smietana, Gary Bartz - African Lake (2000) [FLAC]/05 El Cerrito.flac
    Pre-gap length : 00:02:02
    Track gain               : -6.26 dB
    Peak                     : 0.988495
    CRC32 hash (test run)    : 6DF23F66
    CRC32 hash               : 6DF23F66
    CRC32 hash (skip zero)   : 26F1020C
    AccurateRip v1 signature : AF8B99B7
    AccurateRip v2 signature : EA446142
        ->Track not present in AccurateRip database.
    Statistics
        Read error                           : 0
        Jitter error (maybe fixed)           : 0
        Retry sector count                   : 0
        Damaged sector count                 : 0
Track 06
    Filename : /Users/mnowak/Music/rip/Jarek Smietana, Gary Bartz - African Lake (2000) [FLAC]/06 Big Bad Wolf.flac
    Pre-gap length : 00:02:02
    Track gain               : -7.87 dB
    Peak                     : 0.988495
    CRC32 hash (test run)    : 96787003
    CRC32 hash               : 96787003
    CRC32 hash (skip zero)   : 91BADB1C
    AccurateRip v1 signature : 2BDF4EB5
    AccurateRip v2 signature : 7B0F7168
        ->Track not present in AccurateRip database.
    Statistics
        Read error                           : 0
        Jitter error (maybe fixed)           : 0
        Retry sector count                   : 0
        Damaged sector count                 : 0
Track 07
    Filename : /Users/mnowak/Music/rip/Jarek Smietana, Gary Bartz - African Lake (2000) [FLAC]/07 Jasmin Lady.flac
    Pre-gap length : 00:02:02
    Track gain               : -5.74 dB
    Peak                     : 0.993622
    CRC32 hash (test run)    : 094918BB
    CRC32 hash               : 094918BB
    CRC32 hash (skip zero)   : D67ACCDA
    AccurateRip v1 signature : 8D16E9EB
    AccurateRip v2 signature : B42554B5
        ->Track not present in AccurateRip database.
    Statistics
        Read error                           : 0
        Jitter error (maybe fixed)           : 0
        Retry sector count                   : 0
        Damaged sector count                 : 0
Track 08
    Filename : /Users/mnowak/Music/rip/Jarek Smietana, Gary Bartz - African Lake (2000) [FLAC]/08 African Dream.flac
    Pre-gap length : 00:02:02
    Track gain               : -4.13 dB
    Peak                     : 0.988495
    CRC32 hash (test run)    : 3DC92CEE
    CRC32 hash               : 3DC92CEE
    CRC32 hash (skip zero)   : 59DC8C89
    AccurateRip v1 signature : E0148A69
    AccurateRip v2 signature : E7A0B3DC
        ->Track not present in AccurateRip database.
    Statistics
        Read error                           : 0
        Jitter error (maybe fixed)           : 0
        Retry sector count                   : 0
        Damaged sector count                 : 0
Track 09
    Filename : /Users/mnowak/Music/rip/Jarek Smietana, Gary Bartz - African Lake (2000) [FLAC]/09 Mosquito.flac
    Pre-gap length : 00:02:02
    Track gain               : -7.10 dB
    Peak                     : 0.988464
    CRC32 hash (test run)    : D5072294
    CRC32 hash               : D5072294
    CRC32 hash (skip zero)   : 6611985B
    AccurateRip v1 signature : 6874EBE3
    AccurateRip v2 signature : 98591BC3
        ->Track not present in AccurateRip database.
    Statistics
        Read error                           : 0
        Jitter error (maybe fixed)           : 0
        Retry sector count                   : 0
        Damaged sector count                 : 0
No errors occurred
End of status report
 
 
Содержание индексной карты (.CUE)
TITLE "African Lake"
PERFORMER "Jarek Smietana, Gary Bartz"
REM GENRE "Jazz"
REM DATE "2000"
REM DISCNUMBER 1
REM TOTALDISCS 1
REM DISCID 7D0FB50A
REM REPLAYGAIN_ALBUM_GAIN -6.15 dB
REM REPLAYGAIN_ALBUM_PEAK 0.993622
FILE "01 Mr. Soul (dedicated to G. Bartz).flac" WAVE
  TRACK 01 AUDIO
    TITLE "Mr. Soul (dedicated to G. Bartz)"
    REM REPLAYGAIN_TRACK_GAIN -5.98 dB
    REM REPLAYGAIN_TRACK_PEAK 0.988403
    INDEX 01 00:00:00
  TRACK 02 AUDIO
    TITLE "African Lake"
    REM REPLAYGAIN_TRACK_GAIN -5.76 dB
    REM REPLAYGAIN_TRACK_PEAK 0.988464
    INDEX 00 07:07:39
FILE "02 African Lake.flac" WAVE
    INDEX 01 00:00:00
  TRACK 03 AUDIO
    TITLE "Logic Animal"
    REM REPLAYGAIN_TRACK_GAIN -5.35 dB
    REM REPLAYGAIN_TRACK_PEAK 0.988464
    INDEX 00 08:44:10
FILE "03 Logic Animal.flac" WAVE
    INDEX 01 00:00:00
  TRACK 04 AUDIO
    TITLE "Ask Me Now"
    REM REPLAYGAIN_TRACK_GAIN -4.12 dB
    REM REPLAYGAIN_TRACK_PEAK 0.741211
    INDEX 00 05:34:01
FILE "04 Ask Me Now.flac" WAVE
    INDEX 01 00:00:00
  TRACK 05 AUDIO
    TITLE "El Cerrito"
    REM REPLAYGAIN_TRACK_GAIN -6.26 dB
    REM REPLAYGAIN_TRACK_PEAK 0.988495
    INDEX 00 07:11:62
FILE "05 El Cerrito.flac" WAVE
    INDEX 01 00:00:00
  TRACK 06 AUDIO
    TITLE "Big Bad Wolf"
    REM REPLAYGAIN_TRACK_GAIN -7.87 dB
    REM REPLAYGAIN_TRACK_PEAK 0.988495
    INDEX 00 06:39:37
FILE "06 Big Bad Wolf.flac" WAVE
    INDEX 01 00:00:00
  TRACK 07 AUDIO
    TITLE "Jasmin Lady"
    REM REPLAYGAIN_TRACK_GAIN -5.74 dB
    REM REPLAYGAIN_TRACK_PEAK 0.993622
    INDEX 00 05:29:31
FILE "07 Jasmin Lady.flac" WAVE
    INDEX 01 00:00:00
  TRACK 08 AUDIO
    TITLE "African Dream"
    REM REPLAYGAIN_TRACK_GAIN -4.13 dB
    REM REPLAYGAIN_TRACK_PEAK 0.988495
    INDEX 00 07:31:27
FILE "08 African Dream.flac" WAVE
    INDEX 01 00:00:00
  TRACK 09 AUDIO
    TITLE "Mosquito"
    REM REPLAYGAIN_TRACK_GAIN -7.10 dB
    REM REPLAYGAIN_TRACK_PEAK 0.988464
    INDEX 00 08:54:66
FILE "09 Mosquito.flac" WAVE
    INDEX 01 00:00:00
 
 
Об альбоме (сборнике)
Jarek (Jarosław) Śmietana is one of giants of Polish jazz and most probably the best guitarist in its history. Back in 70ties he participated in legendary group called Extra Ball and since then has collaborated with countless musicians in Poland and abroad. Unlike many of his colleagues from that generation, he remains active and records every couple of years new albums. Though he no more pushes boundaries of jazz forward, yet Śmietana usually delivers great sound, almost always staying close to his beloved fusion jazz aesthetics.
Strong sides of Jarek Śmietana projects are musicians and compositions. On this album both those elements are of the highest quality indeed. Top Polish players like Adam Kowalewski (db), Adam Czerwiński (dr), Jerzy Małek (tr) and Jan Pilch (perc) are supported by excellent foreign Cameron Brown (db), Jeremy Pelt (tr) and Leopoldo F. Fleming (perc). But of course the most famed among them is Gary Bartz (as, ss) who is remembered to be playing with Miles Davis between 1970-71. All these musicians emerge on this CD in different setups (recording sessions took place in Warsaw as well as in New York) but they never fail to produce great sound: varied, rich, melodic.
And in this way we came to another nice feature of this album: tunes that are mostly penned by Jarek Śmietana (some old but few new ones as well) with nice addition of compositions by Gary Bartz, Zbigniew Namysłowski and one standard by Thelonius Monk. Music is very accessible, easy-to-listen and optimistic and shall fit perfectly to the coming summer season. African notes are perhaps most difficult to find in this album: some minor ones in work of guitar or percussion using congas but otherwise it has little (if nothing) in common with African music but rather it is decent piece of straight-ahead jazz with some soul and fusion accents. Good stuff!
 
 
Состав
Jarosław Śmietana - guitars
Gary Bartz - alto and soprano saxophones
Cameron Brown - bass (2, 3, 4, 5, 7, 9)
Adam Kowalewski - bass (1, 6, 8)
Adam Czerwiński - drums
Jeremy Pelt - trumpet (2, 3, 9)
Jerzy Małek - trumpet (8)
Leopoldo F. Fleming - percussion (2, 3, 5, 7, 9)
Jan Pilch - percussion (2, 5, 7, 8)
03:57
573
Нет комментариев. Ваш будет первым!