Поиск

(Contemporary Jazz, Fusion) Kazumi Watanabe - One For All (feat. Mike Mainieri, Larry Coryell, John Patitucci, Mino Cinelu) - 1999, FLAC (image+.cue), lossless

Kazumi Watanabe - One For All
Жанр: Contemporary Jazz, Fusion
Год выпуска диска: 1999
Производитель диска: Россия
Аудио кодек: FLAC
Тип рипа: image+.cue
Битрейт аудио: lossless
Продолжительность: 69:07
Происxождение рипа: Собственный рип из личной коллекции
Треклист:
1. Havana (Koko Tanikawa) 8:39
2. Water Ways Flow Backward Again (Akiko Yano) 6:35
3. Libertango (Astor Piazzolla) 7:51
4. Somewhere (Leonard Bernstein) 9:29
5. Afro Blue (Mongo Santamaria) 10:51
6. One For All (Kazumi Watanabe) 11:43
7. Milestones (Miles Davis) 13:41
Доп. информация:
Live at the Bottom Line, New York
Исполнители:
Kazumi Watanabe - Electric & Acoustic Guitar
Akiko Yano - Piano
Mike Mainieri - Vibraphone
Larry Coryell - Electric & Acoustic Guitar
John Patitucci - Electric & Acoustic Bass
Mino Cinelu - Percussion & Drums
 
EAC Report
Exact Audio Copy V0.99 prebeta 4 from 23. January 2008
Отчёт EAC об извлечении, выполненном 8. июля 2010, 23:38
Kazumi Watanabe / ONE for ALL
Дисковод: ASUS DRW-20B1LT Adapter: 4 ID: 0
Режим чтения : Достоверность
Использование точного потока : Да
Отключение кэша аудио : Да
Использование указателей C2 : Нет
Коррекция смещения при чтении : 6
Способность читать области Lead-in и Lead-out : Нет
Заполнение пропущенных сэмплов тишиной : Да
Удаление блоков с тишиной в начале и конце : Нет
При вычислениях CRC использовались нулевые сэмплы : Да
Интерфейс : Встроенный Win32-интерфейс для Win NT/2000
Выходной формат : Пользовательский кодировщик
Выбранный битрейт : 768 kBit/s
Качество : Высокий
Добавление ID3-тэга : Нет
Утилита сжатия : D:\Program Files\Exact Audio Copy\Flac\Flac.exe
Дополнительные параметры : -8 --delete-input-file -o "D:\CDImage.flac" -V %s
TOC извлечённого CD
Трек | Старт | Длительность | Начальный сектор | Конечный сектор
---------------------------------------------------------------------
1 | 0:00.00 | 8:41.65 | 0 | 39139
2 | 8:41.65 | 6:36.72 | 39140 | 68911
3 | 15:18.62 | 7:52.65 | 68912 | 104376
4 | 23:11.52 | 9:33.00 | 104377 | 147351
5 | 32:44.52 | 10:54.60 | 147352 | 196461
6 | 43:39.37 | 11:46.23 | 196462 | 249434
7 | 55:25.60 | 13:41.45 | 249435 | 311054
Характеристики диапазона извлечения и сообщения об ошибках
Выбранный диапазон
Имя файла D:\Kazumi Watanabe - ONE for ALL.wav
Пиковый уровень 99.8 %
Качество диапазона 100.0 %
CRC теста 675576D2
CRC копии 675576D2
Копирование... OK
Ошибок не произошло
AccurateRip: сводка
Трек 1 нет в базе данных
Трек 2 нет в базе данных
Трек 3 нет в базе данных
Трек 4 нет в базе данных
Трек 5 нет в базе данных
Трек 6 нет в базе данных
Трек 7 нет в базе данных
Ни одного трека нет в базе AccurateRip
Конец отчёта
Скачивание доступно после регистрации!!
Приватный:
Нет (DHT включён)
Размер:
397.98 Мб (417,311,198 байт) » файлов: 9
Участники:
0 раздают, 0 качают (0 участников всего)
Внешние участники:
5 раздают, 1 качают (6 участников всего) [ Обновить ]
18:42
656
Нет комментариев. Ваш будет первым!