Поиск

(Contemporary Jazz) Wayne Shorter/Dave Liebman/Richie Beirach/Eddie Gomez/Jack DeJohnette - Tribute To John Coltrane, Selection From Live Under The Sky - 1987, FLAC (tracks+.cue), lossless

(Contemporary Jazz) Wayne Shorter/Dave Liebman/Richie Beirach/Eddie Gomez/Jack DeJohnette - Tribute To John Coltrane, Selection From Live Under The Sky - 1987, FLAC (tracks+.cue), lossless
Wayne Shorter/Dave Liebman/Richie Beirach/Eddie Gomez/Jack DeJohnette - Tribute To John Coltrane, Selection From Live Under The Sky
Жанр: Contemporary Jazz
Год выпуска диска: 1987
Производитель диска: King/Epic/CBS, Holland
Аудио кодек: FLAC
Тип рипа: tracks+.cue
Битрейт аудио: lossless
Продолжительность: 48:51
Трэклист:
1. Mr P.C 11:01
2. After The Rain/Naima 13:47
3. India/Impressions 24:04
 
Log XLD
X Lossless Decoder version 20100511 (119.2)
XLD extraction logfile from 2010-05-20 11:39:45 +0400
Wayne Shorter/Dave Liebman/Richie Beirach/Eddie Gomez/Jack DeJohnette / Tribute To John Coltrane
Used drive : HL-DT-ST DVDRW  GS23N (revision SB00)
Use cdparanoia mode     : YES (CDParanoia III 10.2 engine)
Disable audio cache     : OK for the drive with cache less than 2750KB
Make use of C2 pointers : NO
Read offset correction  : 667
Max retry count         : 10
TOC of the extracted CD
     Track |   Start  |  Length  | Start sector | End sector
    ---------------------------------------------------------
        1  | 00:00:00 | 11:01:35 |         0    |    49609
        2  | 11:01:35 | 13:47:50 |     49610    |   111684
        3  | 24:49:10 | 24:04:60 |    111685    |   220044
List of alternate offset correction values
        #  | Absolute | Relative | Confidence
    ------------------------------------------
        1  |    673   |      6   |      1
Track 01
    Filename : /Users/olegbelov/Music/XLD/01 Wayne Shorter/Dave Liebman/Richie Beirach/Eddie Gomez/Jack DeJohnette - Mr P.C.flac
    Pre-gap length : 00:02:00
    CRC32 hash (test run)  : 46DCB046
    CRC32 hash             : 46DCB046
    CRC32 hash (skip zero) : AED32270
    AccurateRip signature  : F5607683
        ->Rip may not be accurate.
    Statistics
        Read error                           : 0
        Skipped (treated as error)           : 0
        Edge jitter error (maybe fixed)      : 0
        Atom jitter error (maybe fixed)      : 0
        Drift error (maybe fixed)            : 0
        Dropped bytes error (maybe fixed)    : 0
        Duplicated bytes error (maybe fixed) : 0
        Inconsistency in error sectors       : 0
Track 02
    Filename : /Users/olegbelov/Music/XLD/02 Wayne Shorter/Dave Liebman/Richie Beirach/Eddie Gomez/Jack DeJohnette - After The Rain/Naima.flac
    CRC32 hash (test run)  : B52935D7
    CRC32 hash             : B52935D7
    CRC32 hash (skip zero) : 314737EA
    AccurateRip signature  : D35FE50C
        ->Accurately ripped! (confidence 1)
          (matched with the different offset correction value;
           calculated using an additional offset of 6;
           the signature after correction is: 9B4CCD13)
    Statistics
        Read error                           : 0
        Skipped (treated as error)           : 0
        Edge jitter error (maybe fixed)      : 0
        Atom jitter error (maybe fixed)      : 0
        Drift error (maybe fixed)            : 0
        Dropped bytes error (maybe fixed)    : 0
        Duplicated bytes error (maybe fixed) : 0
        Inconsistency in error sectors       : 0
Track 03
    Filename : /Users/olegbelov/Music/XLD/03 Wayne Shorter/Dave Liebman/Richie Beirach/Eddie Gomez/Jack DeJohnette - India/Impressions.flac
    CRC32 hash (test run)  : 20315915
    CRC32 hash             : 20315915
    CRC32 hash (skip zero) : 73CD2BB0
    AccurateRip signature  : 7CAA503C
        ->Accurately ripped! (confidence 1)
          (matched with the different offset correction value;
           calculated using an additional offset of 6;
           the signature after correction is: 6902EB3D)
    Statistics
        Read error                           : 0
        Skipped (treated as error)           : 0
        Edge jitter error (maybe fixed)      : 0
        Atom jitter error (maybe fixed)      : 0
        Drift error (maybe fixed)            : 0
        Dropped bytes error (maybe fixed)    : 0
        Duplicated bytes error (maybe fixed) : 0
        Inconsistency in error sectors       : 0
Some inconsistencies found
End of status report
 
 
Cue
TITLE "Tribute To John Coltrane"
PERFORMER "Wayne Shorter/Dave Liebman/Richie Beirach/Eddie Gomez/Jack DeJohnette"
REM GENRE "Jazz"
REM DATE 1987
FILE "01 Wayne Shorter/Dave Liebman/Richie Beirach/Eddie Gomez/Jack DeJohnette - Mr P.C.wav" WAVE
  TRACK 01 AUDIO
    TITLE "Mr P.C"
    SONGWRITER "John Coltrane"
    INDEX 01 00:00:00
FILE "02 Wayne Shorter/Dave Liebman/Richie Beirach/Eddie Gomez/Jack DeJohnette - After The Rain/Naima.wav" WAVE
  TRACK 02 AUDIO
    TITLE "After The Rain/Naima"
    SONGWRITER "John Coltrane"
    INDEX 01 00:00:00
FILE "03 Wayne Shorter/Dave Liebman/Richie Beirach/Eddie Gomez/Jack DeJohnette - India/Impressions.wav" WAVE
  TRACK 03 AUDIO
    TITLE "India/Impressions"
    SONGWRITER "John Coltrane"
    INDEX 01 00:00:00
Скачивание доступно после регистрации!!
Приватный:
Да (DHT отключён)
Размер:
289.96 Мб (304,045,577 байт) » файлов: 14
Участники:
0 раздают, 0 качают (0 участников всего)
Внешние участники:
2 раздают, 1 качают (3 участников всего) [ Обновить ]
11:13
536
Нет комментариев. Ваш будет первым!