Поиск

(Crossover Jazz) Paolo Fresu / Richard Galliano / Jan Lundgren - Mare Nostrum - 2007, FLAC (image + .cue), lossless

(Crossover Jazz) Paolo Fresu / Richard Galliano / Jan Lundgren - Mare Nostrum - 2007, FLAC (image + .cue), lossless
Треклист:
Paolo Fresu / Richard Galliano / Jan Lundgren - Mare Nostrum
“In the hands of these three, the combination of trumpet, accordion and piano produces a quite magical sound – gentle, beguilingly tuneful and slightly melancholy.
THE OBSERVER, UK
Страна: Italy/France/Sweden
Жанр: Jazz
Год выпуска: 2007
Формат: FLAC (image + .cue)
Битрейт аудио: lossless
Продолжительность: 1:02:43
Paolo Fresu trumpet, fluegelhorn
Richard Galliano accordion, bandoneon, accordina
Jan Lundgren piano
1. Mare Nostrum - 05:55 (Jan Lundgren)
2. Principessa - 04:35 (Richard Galliano)
3. Eu Nao Existo Sem Voce - 02:58 (A. C. Jobim / Vinícius De Moraes)
4. The Seagull - 03:18 (Jan Lundgren)
5. Que reste-t-il de nos amours? - 04:32 (Charles Trénet)
6. Years Ahead - 05:05 (Jan Lundgren)
7. Sonia's Nightmare - 04:04 (Paolo Fresu)
8. Chat Pitre - 03:00 (Richard Galliano)
9. Valzer del Ritorno - 04:24 (Paolo Fresu)
10. Open Your Mind - 04:05 (Jan Lundgren)
11. Liberty Waltz - 04:10 (Richard Galliano)
12. Mio Mehmet, forse il destino m'impedirà di rivederti - 04:29 (Paolo Fresu, after a poem by Nazim Hikmet)
13. Ma Mère L'Oye - 04:28 (Maurice Ravel)
14. Para Jobim - 03:57 (Richard Galliano)
15. Varvindar Friska - 03:11 (traditional)
Recorded, mixed and mastered by Stefano Amerio at Artesuono Recording Studios, Cavalicco (Udine, Italy) on January 7 - 11, 2007
 
EAC Report
Exact Audio Copy V0.99 prebeta 4 from 23. January 2008
EAC extraction logfile from 10. April 2008, 22:02
Paulo Fresu / Richard Galliano / Jan Lundgren / Mare Nostrum
Used drive  : MATSHITADVD-RAM UJ-840S   Adapter: 1  ID: 0
Read mode               : Secure
Utilize accurate stream : Yes
Defeat audio cache      : Yes
Make use of C2 pointers : No
Read offset correction                      : 102
Overread into Lead-In and Lead-Out          : No
Fill up missing offset samples with silence : Yes
Delete leading and trailing silent blocks   : No
Null samples used in CRC calculations       : No
Used interface                              : Installed external ASPI interface
Used output format              : User Defined Encoder
Selected bitrate                : 1024 kBit/s
Quality                         : High
Add ID3 tag                     : No
Command line compressor         : C:\Program Files\Exact Audio Copy\FLAC\FLAC.EXE
Additional command line options : -6 -V -T "ARTIST=%a" -T "TITLE=%t" -T "ALBUM=%g" -T "DATE=%y" -T "TRACKNUMBER=%n" -T "GENRE=%m" -T "COMMENT=%e" %s -o %d
TOC of the extracted CD
     Track |   Start  |  Length  | Start sector | End sector
    ---------------------------------------------------------
        1  |  0:00.00 |  5:56.67 |         0    |    26766
        2  |  5:56.67 |  4:37.41 |     26767    |    47582
        3  | 10:34.33 |  2:59.67 |     47583    |    61074
        4  | 13:34.25 |  3:20.46 |     61075    |    76120
        5  | 16:54.71 |  4:33.65 |     76121    |    96660
        6  | 21:28.61 |  5:07.28 |     96661    |   119713
        7  | 26:36.14 |  4:05.65 |    119714    |   138153
        8  | 30:42.04 |  3:02.42 |    138154    |   151845
        9  | 33:44.46 |  4:26.22 |    151846    |   171817
       10  | 38:10.68 |  4:07.16 |    171818    |   190358
       11  | 42:18.09 |  4:12.10 |    190359    |   209268
       12  | 46:30.19 |  4:31.43 |    209269    |   229636
       13  | 51:01.62 |  4:30.36 |    229637    |   249922
       14  | 55:32.23 |  3:59.47 |    249923    |   267894
       15  | 59:31.70 |  3:11.27 |    267895    |   282246
Range status and errors
Selected range
     Filename F:\u\Richard Galliano\Paulo Fresu  Richard Galliano  Jan Lundgren - Mare Nostrum.wav
     Peak level 96.6 %
     Range quality 100.0 %
     Copy CRC 0A9BBD8C
     Copy OK
No errors occurred
AccurateRip summary
Track  1  accurately ripped (confidence 2)  [4B4B6EBE]
Track  2  accurately ripped (confidence 2)  [106EE20D]
Track  3  accurately ripped (confidence 2)  [DFE3D5AD]
Track  4  accurately ripped (confidence 2)  [BE33DBC0]
Track  5  accurately ripped (confidence 2)  [3F6C74DA]
Track  6  accurately ripped (confidence 2)  [DF1F7BEC]
Track  7  accurately ripped (confidence 2)  [38BA7BF9]
Track  8  accurately ripped (confidence 2)  [0A2789B1]
Track  9  accurately ripped (confidence 2)  [77ADE473]
Track 10  accurately ripped (confidence 2)  [0185172B]
Track 11  accurately ripped (confidence 2)  [AEDE4EB4]
Track 12  accurately ripped (confidence 2)  [AD31A426]
Track 13  accurately ripped (confidence 2)  [C37D02F9]
Track 14  accurately ripped (confidence 2)  [04AB376D]
Track 15  accurately ripped (confidence 2)  [A7CB2D4B]
All tracks accurately ripped
End of status report
По всем вопросам пишите личное сообщение пользователю M0p94ok.
03:27
383
Нет комментариев. Ваш будет первым!